Home / Yamla Pagla Deewana Phir Se (2018) Hindi HDRip x264 AAC by Full4m - Full Movie Online

Yamla Pagla Deewana Phir Se (2018) Hindi HDRip x264 AAC by Full4m - Download Full Movie

date added 3 weeks ago   
post views 6 views   
torrent id ID: 546201

Torrent Description: Recently Released New Movie On TorrentForest Yamla Pagla Deewana Phir Se (2018) Hindi HDRip x264 AAC by Full4m Full Movie Torrent in HD. Yamla Pagla Deewana Phir Se (2018) Hindi HDRip x264 AAC by Full4m DVD Print Free. 1080p Movie Download Yamla Pagla Deewana Phir Se (2018) Hindi HDRip x264 AAC by Full4m 720p and Bluray Movie Torrent. Scroll Down to Get Download Link.

  • Category : Movies
  • Type : HD
  • Language : Hindi
  • Total size : 694.1 MB
  • Uploaded By : shmasti-shmasti



General
Complete name : Yamla Pagla Deewana Phir Se (2018) Hindi HDRip x264 AAC by Full4movies.mkv
Format : Matroska
Format version : Version 4 / Version 2
File size : 694 MiB
Duration : 2 h 19 min
Overall bit rate : 695 kb/s
Movie name : www.Full4movies.co
Encoded date : UTC 2018-11-15 05:49:56
Writing application : mkvmerge v8.1.0 ('Psychedelic Postcard') 32bit
Writing library : libebml v1.3.1 + libmatroska v1.4.2

Video
ID : 1
Format : AVC
Format/Info : Advanced Video Codec
Format profile : [email protected]
Format settings, CABAC : Yes
Format settings, RefFrames : 4 frames
Codec ID : V_MPEG4/ISO/AVC
Duration : 2 h 19 min
Bit rate : 619 kb/s
Width : 720 pixels
Height : 306 pixels
Display aspect ratio : 2.35:1
Frame rate mode : Constant
Frame rate : 25.000 FPS
Color space : YUV
Chroma subsampling : 4:2:0
Bit depth : 8 bits
Scan type : Progressive
Bits/(Pixel*Frame) : 0.112
Stream size : 628 MiB (90%)
Writing library : x264 core 155 r2901 7d0ff22
Default : Yes
Forced : No
Color range : Limited
Color primaries : BT.709
Transfer characteristics : BT.709
Matrix coefficients : BT.709

Audio
ID : 2
Format : AAC
Format/Info : Advanced Audio Codec
Format profile : LC
Codec ID : A_AAC
Duration : 2 h 19 min
Bit rate : 64.1 kb/s
Channel(s) : 2 channels
Channel positions : Front: L R
Sampling rate : 48.0 kHz
Frame rate : 46.875 FPS (1024 SPF)
Compression mode : Lossy
Delay relative to video : -44 ms
Stream size : 64.1 MiB (9%)
Language : Hindi
Default : Yes
Forced : No

Screen Shoots

DOWNLOAD LINK

Yamla Pagla Deewana Phir Se (2018) Hindi HDRip x264 AAC by Full4m Yamla Pagla Deewana Phir Se (2018) Hindi HDRip x264 AAC by Full4m

Latest Top Searches of peoples:

Download Yamla Pagla Deewana Phir Se (2018) Hindi HDRip x264 AAC by Full4m Full Movie Torrent HD Quality.

Torrent Yamla Pagla Deewana Phir Se (2018) Hindi HDRip x264 AAC by Full4m Download

Download Free Yamla Pagla Deewana Phir Se (2018) Hindi HDRip x264 AAC by Full4m Torrent

Download Yamla Pagla Deewana Phir Se (2018) Hindi HDRip x264 AAC by Full4m Torrent - Kickass Torrents

Yamla Pagla Deewana Phir Se (2018) Hindi HDRip x264 AAC by Full4m Download Torrent - Extratorrent

Yamla Pagla Deewana Phir Se (2018) Hindi HDRip x264 AAC by Full4m Downlaod - torrentz2.eu

Download Yamla Pagla Deewana Phir Se (2018) Hindi HDRip x264 AAC by Full4m Torrent - Limetorrent.info

Torrent Yamla Pagla Deewana Phir Se (2018) Hindi HDRip x264 AAC by Full4m Download - eztv.ag

Yamla Pagla Deewana Phir Se (2018) Hindi HDRip x264 AAC by Full4m HD Full Download Free 2018 - 123movies




Tagged with:

Related Movies Torrents