Home / Wreck-It Ralph (2012) x 1600 (2160p) HDR 5 1 x265 10bit Phun Psyz - Full Movie Online

Wreck-It Ralph (2012) x 1600 (2160p) HDR 5 1 x265 10bit Phun Psyz - Download Full Movie

date added 4 days ago   
post views 6 views   
torrent id ID: 543547

Torrent Description: Recently Released New Movie On TorrentForest Wreck-It Ralph (2012) x 1600 (2160p) HDR 5 1 x265 10bit Phun Psyz Full Movie Torrent in HD. Wreck-It Ralph (2012) x 1600 (2160p) HDR 5 1 x265 10bit Phun Psyz DVD Print Free. 1080p Movie Download Wreck-It Ralph (2012) x 1600 (2160p) HDR 5 1 x265 10bit Phun Psyz 720p and Bluray Movie Torrent. Scroll Down to Get Download Link.

  • Category : Movies
  • Type : UHD
  • Language : English
  • Total size : 2.4 GB
  • Uploaded By : PhunPsyz-PhunPsyz

www.imdb.com/title/tt1772341/

A video game villain wants to be a hero and sets out to fulfill his dream, but his quest brings havoc to the whole arcade where he lives.

Source: FGT 4K Remux







Format : Matroska
Format version : Version 4 / Version 2
File size : 2.37 GiB
Duration : 1 h 41 min
Overall bit rate : 3 355 kb/s

Video
ID : 1
Format : HEVC
Format/Info : High Efficiency Video Coding
Format profile : Main [email protected]@High
Codec ID : V_MPEGH/ISO/HEVC
Duration : 1 h 41 min
Bit rate : 2 968 kb/s
Width : 3 840 pixels
Height : 1 600 pixels
Display aspect ratio : 2.40:1
Frame rate mode : Constant
Frame rate : 23.976 (24000/1001) FPS
Color space : YUV
Chroma subsampling : 4:2:0
Bit depth : 10 bits
Bits/(Pixel*Frame) : 0.020
Stream size : 2.10 GiB (88%)
Writing library : x265 2.6:[Windows][GCC 7.1.0][64 bit] 10bit

Audio
ID : 2
Format : AC-3
Format/Info : Audio Coding 3
Commercial name : Dolby Digital
Codec ID : A_AC3
Duration : 1 h 41 min
Bit rate mode : Constant
Bit rate : 320 kb/s
Channel(s) : 6 channels
Channel layout : L R C LFE Ls Rs
Sampling rate : 48.0 kHz
Frame rate : 31.250 FPS (1536 SPF)
Bit depth : 16 bits
Compression mode : Lossy
Stream size : 232 MiB (10%)
Title : Surround
Language : English

Text
Language : English
Language : English
Language : French
Language : Spanish
Language : Japanese
Language : Korean
Language : Chinese
Language : Chinese
Language : French
Language : Spanish
Language : Japanese
Language : Korean
Language : Chinese
Default : No
Forced : No

DOWNLOAD LINK

Wreck-It Ralph (2012) x 1600 (2160p) HDR 5 1 x265 10bit Phun Psyz Wreck-It Ralph (2012) x 1600 (2160p) HDR 5 1 x265 10bit Phun Psyz

Latest Top Searches of peoples:

Download Wreck-It Ralph (2012) x 1600 (2160p) HDR 5 1 x265 10bit Phun Psyz Full Movie Torrent HD Quality.

Torrent Wreck-It Ralph (2012) x 1600 (2160p) HDR 5 1 x265 10bit Phun Psyz Download

Download Free Wreck-It Ralph (2012) x 1600 (2160p) HDR 5 1 x265 10bit Phun Psyz Torrent

Download Wreck-It Ralph (2012) x 1600 (2160p) HDR 5 1 x265 10bit Phun Psyz Torrent - Kickass Torrents

Wreck-It Ralph (2012) x 1600 (2160p) HDR 5 1 x265 10bit Phun Psyz Download Torrent - Extratorrent

Wreck-It Ralph (2012) x 1600 (2160p) HDR 5 1 x265 10bit Phun Psyz Downlaod - torrentz2.eu

Download Wreck-It Ralph (2012) x 1600 (2160p) HDR 5 1 x265 10bit Phun Psyz Torrent - Limetorrent.info

Torrent Wreck-It Ralph (2012) x 1600 (2160p) HDR 5 1 x265 10bit Phun Psyz Download - eztv.ag

Wreck-It Ralph (2012) x 1600 (2160p) HDR 5 1 x265 10bit Phun Psyz HD Full Download Free 2018 - 123movies




Tagged with:

Related Movies Torrents