Home / Venom 2018 BluRay 1080P Dual Audio [Hindi + English] ESubs x264 A - Full Movie Online

Venom 2018 BluRay 1080P Dual Audio [Hindi + English] ESubs x264 A - Download Full Movie

date added 1 week ago   
post views 3 views   
torrent id ID: 554455

Torrent Description: Recently Released New Movie On TorrentForest Venom 2018 BluRay 1080P Dual Audio [Hindi + English] ESubs x264 A Full Movie Torrent in HD. Venom 2018 BluRay 1080P Dual Audio [Hindi + English] ESubs x264 A DVD Print Free. 1080p Movie Download Venom 2018 BluRay 1080P Dual Audio [Hindi + English] ESubs x264 A 720p and Bluray Movie Torrent. Scroll Down to Get Download Link.

  • Category : Movies
  • Type : Dubs/Dual Audio
  • Language : Hindi
  • Total size : 1.9 GB
  • Uploaded By : Moviesjug-Moviesjug

VISTS OUR SITE https://moviesjug.net/









VISIT OUR SITE https://moviesjug.net/










SCREENSHOTS











MEDIA INFO






Format : Matroska
Format version : Version 4 / Version 2
File size : 1.87 GiB
Duration : 1 h 52 min
Overall bit rate mode : Variable
Overall bit rate : 2 383 kb/s
Movie name : Downloaded From [Moviesjug.net]


Video
ID : 1
Format : AVC
Format/Info : Advanced Video Codec
Format profile : [email protected]
Format settings : CABAC / 4 Ref Frames
Format settings, CABAC : Yes
Format settings, RefFrames : 4 frames
Codec ID : V_MPEG4/ISO/AVC
Duration : 1 h 52 min
Bit rate : 2 150 kb/s
Width : 1 920 pixels
Height : 800 pixels
Display aspect ratio : 2.40:1
Frame rate mode : Constant
Frame rate : 23.976 (24000/1001) FPS
Color space : YUV
Chroma subsampling : 4:2:0
Bit depth : 8 bits
Scan type : Progressive
Bits/(Pixel*Frame) : 0.058
Stream size : 1.68 GiB (90%)
Writing library : x264 core 157
/ filler=0 / ip_ratio=1.40 / aq=1:1.00
Language : English
Default : Yes
Forced : No

Audio #1
ID : 2
Format : AAC
Format/Info : Advanced Audio Codec
Format profile : LC
Codec ID : A_AAC-2
Duration : 1 h 52 min
Bit rate : 129 kb/s
Channel(s) : 2 channels
Channel positions : Front: L R
Sampling rate : 48.0 kHz
Frame rate : 46.875 FPS (1024 SPF)
Compression mode : Lossy
Delay relative to video : -43 ms
Stream size : 103 MiB (5%)
Title : Downloaded From [Moviesjug.net]
Language : English
Default : Yes
Forced : No

Audio #2
ID : 3
Format : MPEG Audio
Format version : Version 1
Format profile : Layer 3
Format settings : Joint stereo / MS Stereo
Codec ID : A_MPEG/L3
Codec ID/Hint : MP3
Duration : 1 h 52 min
Bit rate mode : Variable
Bit rate : 96.0 kb/s
Channel(s) : 2 channels
Sampling rate : 48.0 kHz
Frame rate : 41.667 FPS (1152 SPF)
Compression mode : Lossy
Delay relative to video : -43 ms
Stream size : 80.9 MiB (4%)
Title : Downloaded From [Moviesjug.net]
Writing library : LAME3.99r
Encoding settings : -m j -V 4 -q 3 -lowpass 15.1 --abr 96
Language : Hindi
Default : No
Forced : No

Text
ID : 4
Format : UTF-8
Codec ID : S_TEXT/UTF8
Codec ID/Info : UTF-8 Plain Text
Duration : 1 h 34 min
Bit rate : 63 b/s
Count of elements : 1399
Stream size : 44.0 KiB (0%)
Title : Downloaded From [Moviesjug.net]
Language : English
Default : No
Forced : No




DOWNLOAD LINK

Venom 2018 BluRay 1080P Dual Audio [Hindi + English] ESubs x264 A Venom 2018 BluRay 1080P Dual Audio [Hindi + English] ESubs x264 A

Latest Top Searches of peoples:

Download Venom 2018 BluRay 1080P Dual Audio [Hindi + English] ESubs x264 A Full Movie Torrent HD Quality.

Torrent Venom 2018 BluRay 1080P Dual Audio [Hindi + English] ESubs x264 A Download

Download Free Venom 2018 BluRay 1080P Dual Audio [Hindi + English] ESubs x264 A Torrent

Download Venom 2018 BluRay 1080P Dual Audio [Hindi + English] ESubs x264 A Torrent - Kickass Torrents

Venom 2018 BluRay 1080P Dual Audio [Hindi + English] ESubs x264 A Download Torrent - Extratorrent

Venom 2018 BluRay 1080P Dual Audio [Hindi + English] ESubs x264 A Downlaod - torrentz2.eu

Download Venom 2018 BluRay 1080P Dual Audio [Hindi + English] ESubs x264 A Torrent - Limetorrent.info

Torrent Venom 2018 BluRay 1080P Dual Audio [Hindi + English] ESubs x264 A Download - eztv.ag

Venom 2018 BluRay 1080P Dual Audio [Hindi + English] ESubs x264 A HD Full Download Free 2018 - 123movies




Tagged with:

Related Movies Torrents