Home / Venom 2018 1080p BluRay AC3 5 1 x264 [MW] - Full Movie Online

Venom 2018 1080p BluRay AC3 5 1 x264 [MW] - Download Full Movie

date added 1 week ago   
post views 4 views   
torrent id ID: 554467

Torrent Description: Recently Released New Movie On TorrentForest Venom 2018 1080p BluRay AC3 5 1 x264 [MW] Full Movie Torrent in HD. Venom 2018 1080p BluRay AC3 5 1 x264 [MW] DVD Print Free. 1080p Movie Download Venom 2018 1080p BluRay AC3 5 1 x264 [MW] 720p and Bluray Movie Torrent. Scroll Down to Get Download Link.

  • Category : Movies
  • Type : HD
  • Language : English
  • Total size : 2.3 GB
  • Uploaded By : moviezworldz-moviezworldz




General
Format : Matroska
Format version : Version 4 / Version 2
File size : 2.31 GiB
Duration : 1 h 52 min
Overall bit rate : 2 954 kb/s

Video
ID : 1
Format : AVC
Format/Info : Advanced Video Codec
Format profile : [email protected]
Format settings : CABAC / 4 Ref Frames
Format settings, CABAC : Yes
Format settings, RefFrames : 4 frames
Codec ID : V_MPEG4/ISO/AVC
Duration : 1 h 52 min
Bit rate : 2 500 kb/s
Width : 1 920 pixels
Height : 800 pixels
Display aspect ratio : 2.40:1
Frame rate mode : Constant
Frame rate : 23.976 (24000/1001) FPS
Color space : YUV
Chroma subsampling : 4:2:0
Bit depth : 8 bits
Scan type : Progressive
Bits/(Pixel*Frame) : 0.068
Stream size : 1.96 GiB (85%)
Writing library : x264 core 155 r2901 7d0ff22
Default : Yes
Forced : No

Audio
ID : 2
Format : AC-3
Format/Info : Audio Coding 3
Codec ID : A_AC3
Duration : 1 h 52 min
Bit rate mode : Constant
Bit rate : 448 kb/s
Channel(s) : 6 channels
Channel positions : Front: L C R, Side: L R, LFE
Sampling rate : 48.0 kHz
Frame rate : 31.250 FPS (1536 SPF)
Bit depth : 16 bits
Compression mode : Lossy
Stream size : 359 MiB (15%)
Language : English
Service kind : Complete Main
Default : Yes
Forced : No

Text
ID : 3
Format : UTF-8
Codec ID : S_TEXT/UTF8
Codec ID/Info : UTF-8 Plain Text
Duration : 1 h 34 min
Bit rate : 63 b/s
Count of elements : 1399
Stream size : 44.0 KiB (0%)
Language : English
Default : Yes
Forced : No

Click To View Image








DOWNLOAD LINK

Venom 2018 1080p BluRay AC3 5 1 x264 [MW] Venom 2018 1080p BluRay AC3 5 1 x264 [MW]

Latest Top Searches of peoples:

Download Venom 2018 1080p BluRay AC3 5 1 x264 [MW] Full Movie Torrent HD Quality.

Torrent Venom 2018 1080p BluRay AC3 5 1 x264 [MW] Download

Download Free Venom 2018 1080p BluRay AC3 5 1 x264 [MW] Torrent

Download Venom 2018 1080p BluRay AC3 5 1 x264 [MW] Torrent - Kickass Torrents

Venom 2018 1080p BluRay AC3 5 1 x264 [MW] Download Torrent - Extratorrent

Venom 2018 1080p BluRay AC3 5 1 x264 [MW] Downlaod - torrentz2.eu

Download Venom 2018 1080p BluRay AC3 5 1 x264 [MW] Torrent - Limetorrent.info

Torrent Venom 2018 1080p BluRay AC3 5 1 x264 [MW] Download - eztv.ag

Venom 2018 1080p BluRay AC3 5 1 x264 [MW] HD Full Download Free 2018 - 123movies




Tagged with:

Related Movies Torrents