Home / Thugs of Hindostan (2018) Hindi 720p Desi Pre DVDRip [Audio Line] - Full Movie Online

Thugs of Hindostan (2018) Hindi 720p Desi Pre DVDRip [Audio Line] - Download Full Movie

date added 5 days ago   
post views 7 views   
torrent id ID: 543013

Torrent Description: Recently Released New Movie On TorrentForest Thugs of Hindostan (2018) Hindi 720p Desi Pre DVDRip [Audio Line] Full Movie Torrent in HD. Thugs of Hindostan (2018) Hindi 720p Desi Pre DVDRip [Audio Line] DVD Print Free. 1080p Movie Download Thugs of Hindostan (2018) Hindi 720p Desi Pre DVDRip [Audio Line] 720p and Bluray Movie Torrent. Scroll Down to Get Download Link.

  • Category : Movies
  • Type : Bollywood
  • Language : Hindi
  • Total size : 1.3 GB
  • Uploaded By : 1337xHD-1337xHD

https://hdfilmboss.mobi/
https://1337xhd.com/



Official Website https://hdfilmboss.mobi/
Official Website https://1337xhd.com/



General
Format : Matroska
Format version : Version 4
File size : 1.34 GiB
Duration : 2 h 33 min
Overall bit rate : 1 246 kb/s
Movie name : HDFilmBoss.Mobi
Encoded date : UTC 2018-11-08 16:21:57
Writing application : mkvmerge v28.2.0 ('The Awakening') 64-bit
Writing library : libebml v1.3.6 + libmatroska v1.4.9

Video
ID : 1
Format : AVC
Format/Info : Advanced Video Codec
Format profile : [email protected]
Format settings : CABAC / 4 Ref Frames
Format settings, CABAC : Yes
Format settings, RefFrames : 4 frames
Codec ID : V_MPEG4/ISO/AVC
Duration : 2 h 33 min
Bit rate : 1 183 kb/s
Width : 1 280 pixels
Height : 560 pixels
Display aspect ratio : 2.25:1
Frame rate mode : Constant
Frame rate : 25.000 FPS
Color space : YUV
Chroma subsampling : 4:2:0
Bit depth : 8 bits
Scan type : Progressive
Bits/(Pixel*Frame) : 0.066
Stream size : 1.27 GiB (95%)
Title : 1337xHD.Com
Writing library : x264 core 148 r2643 5c65704
Language : Hindi
Default : Yes
Forced : No

Audio
ID : 2
Format : AAC LC
Format/Info : Advanced Audio Codec Low Complexity
Codec ID : A_AAC-2
Duration : 2 h 33 min
Bit rate : 64.0 kb/s
Channel(s) : 1 channel
Channel layout : C
Sampling rate : 44.1 kHz
Frame rate : 43.066 FPS (1024 SPF)
Compression mode : Lossy
Delay relative to video : -46 ms
Stream size : 70.3 MiB (5%)
Title : 1337xHD.Com
Language : Hindi
Default : Yes
Forced : No













DOWNLOAD LINK

Thugs of Hindostan (2018) Hindi 720p Desi Pre DVDRip [Audio Line] Thugs of Hindostan (2018) Hindi 720p Desi Pre DVDRip [Audio Line]

Latest Top Searches of peoples:

Download Thugs of Hindostan (2018) Hindi 720p Desi Pre DVDRip [Audio Line] Full Movie Torrent HD Quality.

Torrent Thugs of Hindostan (2018) Hindi 720p Desi Pre DVDRip [Audio Line] Download

Download Free Thugs of Hindostan (2018) Hindi 720p Desi Pre DVDRip [Audio Line] Torrent

Download Thugs of Hindostan (2018) Hindi 720p Desi Pre DVDRip [Audio Line] Torrent - Kickass Torrents

Thugs of Hindostan (2018) Hindi 720p Desi Pre DVDRip [Audio Line] Download Torrent - Extratorrent

Thugs of Hindostan (2018) Hindi 720p Desi Pre DVDRip [Audio Line] Downlaod - torrentz2.eu

Download Thugs of Hindostan (2018) Hindi 720p Desi Pre DVDRip [Audio Line] Torrent - Limetorrent.info

Torrent Thugs of Hindostan (2018) Hindi 720p Desi Pre DVDRip [Audio Line] Download - eztv.ag

Thugs of Hindostan (2018) Hindi 720p Desi Pre DVDRip [Audio Line] HD Full Download Free 2018 - 123movies




Tagged with:

Related Movies Torrents