Home / The Signal (2014) DVDrip XviD - Italian English Ac3 5 1 Sub it - Full Movie Online

The Signal (2014) DVDrip XviD - Italian English Ac3 5 1 Sub it - Download Full Movie

date added 2 years ago   
post views 187 views   
torrent id ID: 35985

Torrent Description: Recently Released New Movie On TorrentForest The Signal (2014) DVDrip XviD - Italian English Ac3 5 1 Sub it Full Movie Torrent in HD. The Signal (2014) DVDrip XviD - Italian English Ac3 5 1 Sub it DVD Print Free. 1080p Movie Download The Signal (2014) DVDrip XviD - Italian English Ac3 5 1 Sub it 720p and Bluray Movie Torrent. Scroll Down to Get Download Link.

  • Category » Movies
  • Type » Divx/Xvid
  • Language » English
  • Total size » 1.44 GB
  • Uploaded By » robbyrs-robbyrs
The Signal (2014).DVDrip.XviD - Italian English.Ac3.5.1.Sub.ita.MIRCrew





NO FOUND ONLY ORIGINAL RELEASE

The Signal (2014)







Titolo originale The Signal
Lingua originale inglese
Paese di produzione Stati Uniti
Anno 2014
Durata 97 min.
Genere fantascienza, thriller
Regia William Eubank
Sceneggiatura Carlyle Eubank, David Frigerio, William Eubank
Produttore Brian Kavanaugh-Jones, Tyler Davidson
Casa di produzione ImageMovers, Spyglass Entertainment
Fotografia David Lanzenberg
Montaggio Brian Berdan
Musiche Nima Fakhrara




Brenton Thwaites: Nic
Olivia Cooke: Haley
Lin Shaye: Mirabelle
Laurence Fishburne: Damon
Beau Knapp: Jonah
Robert Longstreet: James




Tre studenti del MIT - Jonah, Nic, e Haley - sono in un viaggio per portare Haley in California, una decisione che tuttavia sta rendendo tesa la relazione fra Haley e Nic. Haley sente che Nic si sta allontanando da lei, ma Nic le spiega che non vuole che la sua distrofia muscolare sia un ostacolo per la sua vita. Durante il loro soggiorno in un hotel, Nic e Jonah scoprono che un hacker di nome "NOMAD" (che era quasi riuscito ad espellere i due ragazzi per una loro incursione nei server del MIT) ha trovato la loro posizione e li schernisce con delle e-mail strane e minacciose.......



On a road trip, Nic and two friends are drawn to an isolated area by a computer genius. When everything suddenly goes dark, Nic regains consciousness - only to find himself in a waking nightmare.................
















[spoiler]
General
Complete name : The Signal (2014).ita.eng.sub.ita.MIRCrew\The Signal (2014).ita.eng.sub.ita.MIRCrew.avi
Format : AVI
Format/Info : Audio Video Interleave
File size : 1.44 GiB
Duration : 1h 33mn
Overall bit rate : 2 204 Kbps
Writing application : VirtualDubMod 1.5.10.2 (build 2540/release)
Writing library : VirtualDubMod build 2540/release

Video
ID : 0
Format : MPEG-4 Visual
Format profile : [email protected]
Format settings, BVOP : No
Format settings, QPel : No
Format settings, GMC : No warppoints
Format settings, Matrix : Default (H.263)
Codec ID : XVID
Codec ID/Hint : XviD
Duration : 1h 33mn
Bit rate : 1 293 Kbps
Width : 688 pixels
Height : 288 pixels
Display aspect ratio : 2.40:1
Frame rate : 25.000 fps
Color space : YUV
Chroma subsampling : 4:2:0
Bit depth : 8 bits
Scan type : Progressive
Compression mode : Lossy
Bits/(Pixel*Frame) : 0.261
Stream size : 864 MiB (59%)
Writing library : XviD 1.2.1 (UTC 2008-12-04)

Audio #1
ID : 1
Format : AC-3
Format/Info : Audio Coding 3
Mode extension : CM (complete main)
Codec ID : 2000
Duration : 1h 33mn
Bit rate mode : Constant
Bit rate : 448 Kbps
Channel(s) : 6 channels
Channel positions : Front: L C R, Side: L R, LFE
Sampling rate : 48.0 KHz
Bit depth : 16 bits
Compression mode : Lossy
Stream size : 299 MiB (20%)
Alignment : Split accross interleaves
Interleave, duration : 40 ms (1.00 video frame)
Interleave, preload duration : 500 ms

Audio #2
ID : 2
Format : AC-3
Format/Info : Audio Coding 3
Mode extension : CM (complete main)
Codec ID : 2000
Duration : 1h 33mn
Bit rate mode : Constant
Bit rate : 448 Kbps
Channel(s) : 6 channels
Channel positions : Front: L C R, Side: L R, LFE
Sampling rate : 48.0 KHz
Bit depth : 16 bits
Compression mode : Lossy
Stream size : 299 MiB (20%)
Alignment : Split accross interleaves
Interleave, duration : 40 ms (1.00 video frame)
Interleave, preload duration : 500 ms


[/spoiler]



DOWNLOAD LINK

The Signal (2014) DVDrip XviD - Italian English Ac3 5 1 Sub it The Signal (2014) DVDrip XviD - Italian English Ac3 5 1 Sub it

Latest Top Searches of peoples:

Download The Signal (2014) DVDrip XviD - Italian English Ac3 5 1 Sub it Full Movie Torrent HD Quality.

Torrent The Signal (2014) DVDrip XviD - Italian English Ac3 5 1 Sub it Download

Download Free The Signal (2014) DVDrip XviD - Italian English Ac3 5 1 Sub it Torrent

Download The Signal (2014) DVDrip XviD - Italian English Ac3 5 1 Sub it Torrent - Kickass Torrents

The Signal (2014) DVDrip XviD - Italian English Ac3 5 1 Sub it Download Torrent - Extratorrent

The Signal (2014) DVDrip XviD - Italian English Ac3 5 1 Sub it Downlaod - torrentz2.eu

Download The Signal (2014) DVDrip XviD - Italian English Ac3 5 1 Sub it Torrent - Limetorrent.info

Torrent The Signal (2014) DVDrip XviD - Italian English Ac3 5 1 Sub it Download - eztv.ag

The Signal (2014) DVDrip XviD - Italian English Ac3 5 1 Sub it HD Full Download Free 2018 - 123movies




Tagged with:

Related Movies Torrents