Home / The People vs Larry Flynt (1996) + Extras (1080p BluRay x265 HEV - Full Movie Online

The People vs Larry Flynt (1996) + Extras (1080p BluRay x265 HEV - Download Full Movie

date added 3 weeks ago   
post views 10 views   
torrent id ID: 546482

Torrent Description: Recently Released New Movie On TorrentForest The People vs Larry Flynt (1996) + Extras (1080p BluRay x265 HEV Full Movie Torrent in HD. The People vs Larry Flynt (1996) + Extras (1080p BluRay x265 HEV DVD Print Free. 1080p Movie Download The People vs Larry Flynt (1996) + Extras (1080p BluRay x265 HEV 720p and Bluray Movie Torrent. Scroll Down to Get Download Link.

  • Category : Movies
  • Type : HEVC/x265
  • Language : English
  • Total size : 6.2 GB
  • Uploaded By : QxR-QxR



https://www.imdb.com/title/tt0117318/



Note from Encoder:

Encoded with 2-Pass at 4,765 kb/s, includes extras and subtitles in 17 different languages.





Media Information

Code:

General
Format : Matroska
Format version : Version 4 / Version 2
File size : 5.59 GiB
Duration : 2 h 9 min
Overall bit rate : 6 179 kb/s
Movie name : People vs. Larry Flynt
Encoded date : UTC 2018-11-14 11:41:07
Writing application : mkvmerge v28.1.0 ('Morning Child') 64-bit
Writing library : libebml v1.3.6 + libmatroska v1.4.9
Cover : Yes
Attachments : cover.jpg
Writing frontend : StaxRip v1.7.0.6

Video
ID : 1
Format : HEVC
Format/Info : High Efficiency Video Coding
Format profile : Main [email protected]@Main
Codec ID : V_MPEGH/ISO/HEVC
Duration : 2 h 9 min
Bit rate : 4 762 kb/s
Width : 1 920 pixels
Height : 800 pixels
Display aspect ratio : 2.40:1
Frame rate mode : Constant
Frame rate : 23.976 (24000/1001) FPS
Color space : YUV
Chroma subsampling : 4:2:0
Bit depth : 10 bits
Bits/(Pixel*Frame) : 0.129
Stream size : 4.31 GiB (77%)
Title : Encoded by r00t
Writing library : x265 2.9+4-471726d3a046:[Windows][MSVC 1915][64 bit] 10bit
Encoding settings : cpuid=1111039 / frame-threads=2 / numa-pools=4 / wpp / no-pmode / no-pme / no-psnr / no-ssim / log-level=2 / input-csp=1 / input-res=1920x800 / interlace=0 / total-frames=186240 / level-idc=0 / high-tier=1 / uhd-bd=0 / ref=4 / no-allow-non-conformance / no-repeat-headers / annexb / no-aud / no-hrd / info / hash=0 / no-temporal-layers / open-gop / min-keyint=23 / keyint=250 / gop-lookahead=0 / bframes=4 / b-adapt=2 / b-pyramid / bframe-bias=0 / rc-lookahead=25 / lookahead-slices=4 / scenecut=40 / radl=0 / no-intra-refresh / ctu=64 / min-cu-size=8 / no-rect / no-amp / max-tu-size=32 / tu-inter-depth=1 / tu-intra-depth=1 / limit-tu=0 / rdoq-level=2 / dynamic-rd=0.00 / no-ssim-rd / signhide / no-tskip / nr-intra=0 / nr-inter=0 / no-constrained-intra / no-strong-intra-smoothing / max-merge=3 / limit-refs=3 / limit-modes / me=3 / subme=3 / merange=57 / temporal-mvp / weightp / no-weightb / no-analyze-src-pics / deblock=0:0 / no-sao / no-sao-non-deblock / rd=4 / no-early-skip / no-rskip / no-fast-intra / no-tskip-fast / no-cu-lossless / no-b-intra / no-splitrd-skip / rdpenalty=0 / psy-rd=2.00 / psy-rdoq=1.00 / no-rd-refine / no-lossless / cbqpoffs=0 / crqpoffs=0 / rc=abr / bitrate=4765 / qcomp=0.60 / qpstep=4 / stats-write=0 / stats-read=2 / cplxblur=20.0 / qblur=0.5 / ipratio=1.40 / pbratio=1.30 / aq-mode=3 / aq-strength=1.00 / cutree / zone-count=0 / no-strict-cbr / qg-size=32 / no-rc-grain / qpmax=69 / qpmin=0 / no-const-vbv / sar=0 / overscan=0 / videoformat=5 / range=0 / colorprim=2 / transfer=2 / colormatrix=2 / chromaloc=0 / display-window=0 / max-cll=0,0 / min-luma=0 / max-luma=1023 / log2-max-poc-lsb=8 / vui-timing-info / vui-hrd-info / slices=1 / no-opt-qp-pps / no-opt-ref-list-length-pps / no-multi-pass-opt-rps / scenecut-bias=0.05 / no-opt-cu-delta-qp / no-aq-motion / no-hdr / no-hdr-opt / no-dhdr10-opt / no-idr-recovery-sei / analysis-reuse-level=5 / scale-factor=0 / refine-intra=0 / refine-inter=0 / refine-mv=0 / no-limit-sao / ctu-info=0 / no-lowpass-dct / refine-mv-type=0 / copy-pic=1 / max-ausize-factor=1.0 / no-dynamic-refine / no-single-sei
Default : Yes
Forced : No

Audio #1
ID : 2
Format : AAC
Format/Info : Advanced Audio Codec
Format profile : LC
Codec ID : A_AAC
Duration : 2 h 9 min
Bit rate : 415 kb/s
Channel(s) : 6 channels
Channel positions : Front: L C R, Side: L R, LFE
Sampling rate : 48.0 kHz
Frame rate : 46.875 FPS (1024 spf)
Compression mode : Lossy
Delay relative to video : 20 ms
Stream size : 384 MiB (7%)
Language : English
Default : Yes
Forced : No

Audio #2
ID : 3
Format : AAC
Format/Info : Advanced Audio Codec
Format profile : HE-AAC / LC
Codec ID : A_AAC
Duration : 2 h 9 min
Bit rate : 192 kb/s
Channel(s) : 6 channels
Channel positions : Front: L C R, Side: L R, LFE
Sampling rate : 48.0 kHz / 24.0 kHz
Frame rate : 23.438 FPS (1024 spf)
Compression mode : Lossy
Delay relative to video : 40 ms
Stream size : 178 MiB (3%)
Language : French
Default : No
Forced : No

Audio #3
ID : 4
Format : AAC
Format/Info : Advanced Audio Codec
Format profile : HE-AAC / LC
Codec ID : A_AAC
Duration : 2 h 9 min
Bit rate : 192 kb/s
Channel(s) : 6 channels
Channel positions : Front: L C R, Side: L R, LFE
Sampling rate : 48.0 kHz / 24.0 kHz
Frame rate : 23.438 FPS (1024 spf)
Compression mode : Lossy
Delay relative to video : 40 ms
Stream size : 178 MiB (3%)
Language : German
Default : No
Forced : No

Audio #4
ID : 5
Format : AAC
Format/Info : Advanced Audio Codec
Format profile : HE-AAC / LC
Codec ID : A_AAC
Duration : 2 h 9 min
Bit rate : 192 kb/s
Channel(s) : 6 channels
Channel positions : Front: L C R, Side: L R, LFE
Sampling rate : 48.0 kHz / 24.0 kHz
Frame rate : 23.438 FPS (1024 spf)
Compression mode : Lossy
Delay relative to video : 40 ms
Stream size : 178 MiB (3%)
Language : Italian
Default : No
Forced : No

Audio #5
ID : 6
Format : AAC
Format/Info : Advanced Audio Codec
Format profile : HE-AAC / LC
Codec ID : A_AAC
Duration : 2 h 9 min
Bit rate : 80.0 kb/s
Channel(s) : 2 channels
Channel positions : Front: L R
Sampling rate : 48.0 kHz / 24.0 kHz
Frame rate : 23.438 FPS (1024 spf)
Compression mode : Lossy
Delay relative to video : 40 ms
Stream size : 74.1 MiB (1%)
Language : Japanese
Default : No
Forced : No

Audio #6
ID : 7
Format : AAC
Format/Info : Advanced Audio Codec
Format profile : HE-AAC / LC
Codec ID : A_AAC
Duration : 2 h 9 min
Bit rate : 80.0 kb/s
Channel(s) : 2 channels
Channel positions : Front: L R
Sampling rate : 48.0 kHz / 24.0 kHz
Frame rate : 23.438 FPS (1024 spf)
Compression mode : Lossy
Delay relative to video : 40 ms
Stream size : 74.1 MiB (1%)
Language : Spanish
Default : No
Forced : No

Subtitle #1
ID : 8
Format : PGS
Muxing mode : zlib
Codec ID : S_HDMV/PGS
Codec ID/Info : Picture based subtitle format used on BDs/HD-DVDs
Duration : 2 h 3 min
Bit rate : 41.8 kb/s
Count of elements : 3320
Stream size : 37.0 MiB (1%)
Language : English
Default : No
Forced : No

Subtitle #2
ID : 9
Format : PGS
Muxing mode : zlib
Codec ID : S_HDMV/PGS
Codec ID/Info : Picture based subtitle format used on BDs/HD-DVDs
Duration : 2 h 3 min
Bit rate : 41.8 kb/s
Count of elements : 3320
Stream size : 37.1 MiB (1%)
Language : English
Default : No
Forced : No

Subtitle #3
ID : 10
Format : PGS
Muxing mode : zlib
Codec ID : S_HDMV/PGS
Codec ID/Info : Picture based subtitle format used on BDs/HD-DVDs
Duration : 2 h 5 min
Bit rate : 30.9 kb/s
Count of elements : 3765
Stream size : 27.7 MiB (0%)
Language : English
Default : No
Forced : No

Subtitle #4
ID : 11
Format : PGS
Muxing mode : zlib
Codec ID : S_HDMV/PGS
Codec ID/Info : Picture based subtitle format used on BDs/HD-DVDs
Duration : 2 h 5 min
Bit rate : 17.7 kb/s
Count of elements : 2234
Stream size : 15.9 MiB (0%)
Language : Arabic
Default : No
Forced : No

Subtitle #5
ID : 12
Format : PGS
Muxing mode : zlib
Codec ID : S_HDMV/PGS
Codec ID/Info : Picture based subtitle format used on BDs/HD-DVDs
Duration : 2 h 5 min
Bit rate : 31.5 kb/s
Count of elements : 3386
Stream size : 28.2 MiB (0%)
Language : Chinese
Default : No
Forced : No

Subtitle #6
ID : 13
Format : PGS
Muxing mode : zlib
Codec ID : S_HDMV/PGS
Codec ID/Info : Picture based subtitle format used on BDs/HD-DVDs
Duration : 2 h 5 min
Bit rate : 29.6 kb/s
Count of elements : 2070
Stream size : 26.5 MiB (0%)
Language : Danish
Default : No
Forced : No

Subtitle #7
ID : 14
Format : PGS
Muxing mode : zlib
Codec ID : S_HDMV/PGS
Codec ID/Info : Picture based subtitle format used on BDs/HD-DVDs
Duration : 2 h 5 min
Bit rate : 30.2 kb/s
Count of elements : 2124
Stream size : 27.0 MiB (0%)
Language : Dutch
Default : No
Forced : No

Subtitle #8
ID : 15
Format : PGS
Muxing mode : zlib
Codec ID : S_HDMV/PGS
Codec ID/Info : Picture based subtitle format used on BDs/HD-DVDs
Duration : 2 h 5 min
Bit rate : 28.4 kb/s
Count of elements : 2252
Stream size : 25.4 MiB (0%)
Language : Finnish
Default : No
Forced : No

Subtitle #9
ID : 16
Format : PGS
Muxing mode : zlib
Codec ID : S_HDMV/PGS
Codec ID/Info : Picture based subtitle format used on BDs/HD-DVDs
Duration : 2 h 8 min
Bit rate : 29.6 kb/s
Count of elements : 2888
Stream size : 27.2 MiB (0%)
Language : French
Default : No
Forced : No

Subtitle #10
ID : 17
Format : PGS
Muxing mode : zlib
Codec ID : S_HDMV/PGS
Codec ID/Info : Picture based subtitle format used on BDs/HD-DVDs
Duration : 2 h 1 min
Bit rate : 370 b/s
Count of elements : 26
Stream size : 330 KiB (0%)
Language : French
Default : No
Forced : No

Subtitle #11
ID : 18
Format : PGS
Muxing mode : zlib
Codec ID : S_HDMV/PGS
Codec ID/Info : Picture based subtitle format used on BDs/HD-DVDs
Duration : 2 h 5 min
Bit rate : 39.9 kb/s
Count of elements : 3188
Stream size : 35.7 MiB (1%)
Language : German
Default : No
Forced : No

Subtitle #12
ID : 19
Format : PGS
Muxing mode : zlib
Codec ID : S_HDMV/PGS
Codec ID/Info : Picture based subtitle format used on BDs/HD-DVDs
Duration : 2 h 1 min
Bit rate : 695 b/s
Count of elements : 50
Stream size : 619 KiB (0%)
Language : German
Default : No
Forced : No

Subtitle #13
ID : 20
Format : PGS
Muxing mode : zlib
Codec ID : S_HDMV/PGS
Codec ID/Info : Picture based subtitle format used on BDs/HD-DVDs
Duration : 2 h 5 min
Bit rate : 25.6 kb/s
Count of elements : 2640
Stream size : 22.9 MiB (0%)
Language : Hebrew
Default : No
Forced : No

Subtitle #14
ID : 21
Format : PGS
Muxing mode : zlib
Codec ID : S_HDMV/PGS
Codec ID/Info : Picture based subtitle format used on BDs/HD-DVDs
Duration : 2 h 5 min
Bit rate : 27.1 kb/s
Count of elements : 3333
Stream size : 24.3 MiB (0%)
Language : Hindi
Default : No
Forced : No

Subtitle #15
ID : 22
Format : PGS
Muxing mode : zlib
Codec ID : S_HDMV/PGS
Codec ID/Info : Picture based subtitle format used on BDs/HD-DVDs
Duration : 2 h 8 min
Bit rate : 29.6 kb/s
Count of elements : 2185
Stream size : 27.2 MiB (0%)
Language : Italian
Default : No
Forced : No

Subtitle #16
ID : 23
Format : PGS
Muxing mode : zlib
Codec ID : S_HDMV/PGS
Codec ID/Info : Picture based subtitle format used on BDs/HD-DVDs
Duration : 2 h 1 min
Bit rate : 613 b/s
Count of elements : 40
Stream size : 547 KiB (0%)
Language : Italian
Default : No
Forced : No

Subtitle #17
ID : 24
Format : PGS
Muxing mode : zlib
Codec ID : S_HDMV/PGS
Codec ID/Info : Picture based subtitle format used on BDs/HD-DVDs
Duration : 2 h 5 min
Bit rate : 30.4 kb/s
Count of elements : 3400
Stream size : 27.3 MiB (0%)
Language : Japanese
Default : No
Forced : No

Subtitle #18
ID : 25
Format : PGS
Muxing mode : zlib
Codec ID : S_HDMV/PGS
Codec ID/Info : Picture based subtitle format used on BDs/HD-DVDs
Duration : 2 h 5 min
Bit rate : 30.6 kb/s
Count of elements : 2378
Stream size : 27.4 MiB (0%)
Language : Norwegian Bokmal
Default : No
Forced : No

Subtitle #19
ID : 26
Format : PGS
Muxing mode : zlib
Codec ID : S_HDMV/PGS
Codec ID/Info : Picture based subtitle format used on BDs/HD-DVDs
Duration : 2 h 5 min
Bit rate : 34.8 kb/s
Count of elements : 2902
Stream size : 31.2 MiB (1%)
Language : Portuguese
Default : No
Forced : No

Subtitle #20
ID : 27
Format : PGS
Muxing mode : zlib
Codec ID : S_HDMV/PGS
Codec ID/Info : Picture based subtitle format used on BDs/HD-DVDs
Duration : 2 h 1 min
Bit rate : 819 b/s
Count of elements : 64
Stream size : 730 KiB (0%)
Language : Portuguese
Default : No
Forced : No

Subtitle #21
ID : 28
Format : PGS
Muxing mode : zlib
Codec ID : S_HDMV/PGS
Codec ID/Info : Picture based subtitle format used on BDs/HD-DVDs
Duration : 2 h 5 min
Bit rate : 37.7 kb/s
Count of elements : 3265
Stream size : 33.7 MiB (1%)
Language : Spanish
Default : No
Forced : No

Subtitle #22
ID : 29
Format : PGS
Muxing mode : zlib
Codec ID : S_HDMV/PGS
Codec ID/Info : Picture based subtitle format used on BDs/HD-DVDs
Duration : 1 h 51 min
Bit rate : 180 b/s
Count of elements : 14
Stream size : 147 KiB (0%)
Language : Spanish
Default : No
Forced : No

Subtitle #23
ID : 30
Format : PGS
Muxing mode : zlib
Codec ID : S_HDMV/PGS
Codec ID/Info : Picture based subtitle format used on BDs/HD-DVDs
Duration : 2 h 5 min
Bit rate : 27.6 kb/s
Count of elements : 2370
Stream size : 24.7 MiB (0%)
Language : Swedish
Default : No
Forced : No

Subtitle #24
ID : 31
Format : PGS
Muxing mode : zlib
Codec ID : S_HDMV/PGS
Codec ID/Info : Picture based subtitle format used on BDs/HD-DVDs
Duration : 2 h 5 min
Bit rate : 34.0 kb/s
Count of elements : 3388
Stream size : 30.4 MiB (1%)
Language : Thai
Default : No
Forced : No

Subtitle #25
ID : 32
Format : PGS
Muxing mode : zlib
Codec ID : S_HDMV/PGS
Codec ID/Info : Picture based subtitle format used on BDs/HD-DVDs
Duration : 1 h 54 min
Bit rate : 567 b/s
Count of elements : 56
Stream size : 477 KiB (0%)
Language : Japanese
Default : No
Forced : No

Menu
00:00:00.000 : en:Chapter 01
00:10:29.795 : en:Chapter 02
00:16:25.985 : en:Chapter 03
00:23:40.127 : en:Chapter 04
00:32:43.169 : en:Chapter 05
00:40:26.006 : en:Chapter 06
00:50:00.163 : en:Chapter 07
00:56:08.239 : en:Chapter 08
01:04:54.765 : en:Chapter 09
01:13:48.549 : en:Chapter 10
01:21:24.170 : en:Chapter 11
01:29:56.891 : en:Chapter 12
01:37:18.582 : en:Chapter 13
01:44:23.340 : en:Chapter 14
01:54:23.064 : en:Chapter 15
02:01:43.838 : en:Chapter 16

Source Information

Code:

Release:
The People vs. Larry Flynt (1996) - Untouched (38.00 GB)


Note From QxR:

Quote:

Whilst we are happy for our releases to be re-posted on a platform we aren't on, please do so in an 'as-is' format. We ask that you do not create a new torrent, include all descriptions you see above including the QxR logo, tags, notes and screenshots. If you'd like to become a permanent poster on a website we don't post to, feel free to get in contact with a QxR member.


DOWNLOAD LINK

The People vs  Larry Flynt (1996) + Extras (1080p BluRay x265 HEV The People vs  Larry Flynt (1996) + Extras (1080p BluRay x265 HEV

Latest Top Searches of peoples:

Download The People vs Larry Flynt (1996) + Extras (1080p BluRay x265 HEV Full Movie Torrent HD Quality.

Torrent The People vs Larry Flynt (1996) + Extras (1080p BluRay x265 HEV Download

Download Free The People vs Larry Flynt (1996) + Extras (1080p BluRay x265 HEV Torrent

Download The People vs Larry Flynt (1996) + Extras (1080p BluRay x265 HEV Torrent - Kickass Torrents

The People vs Larry Flynt (1996) + Extras (1080p BluRay x265 HEV Download Torrent - Extratorrent

The People vs Larry Flynt (1996) + Extras (1080p BluRay x265 HEV Downlaod - torrentz2.eu

Download The People vs Larry Flynt (1996) + Extras (1080p BluRay x265 HEV Torrent - Limetorrent.info

Torrent The People vs Larry Flynt (1996) + Extras (1080p BluRay x265 HEV Download - eztv.ag

The People vs Larry Flynt (1996) + Extras (1080p BluRay x265 HEV HD Full Download Free 2018 - 123movies




Tagged with:

Related Movies Torrents