Home / The Nun (2018) 720p Blu-Ray x264 Esub [Dual Audio] [Hindi DD 5 1 - Full Movie Online

The Nun (2018) 720p Blu-Ray x264 Esub [Dual Audio] [Hindi DD 5 1 - Download Full Movie

date added 1 week ago   
post views 3 views   
torrent id ID: 554472

Torrent Description: Recently Released New Movie On TorrentForest The Nun (2018) 720p Blu-Ray x264 Esub [Dual Audio] [Hindi DD 5 1 Full Movie Torrent in HD. The Nun (2018) 720p Blu-Ray x264 Esub [Dual Audio] [Hindi DD 5 1 DVD Print Free. 1080p Movie Download The Nun (2018) 720p Blu-Ray x264 Esub [Dual Audio] [Hindi DD 5 1 720p and Bluray Movie Torrent. Scroll Down to Get Download Link.

  • Category : Movies
  • Type : Dubs/Dual Audio
  • Language : Hindi
  • Total size : 1.5 GB
  • Uploaded By : DESIRE123-DESIRE123

The Nun (2018) 720p Blu-Ray x264 Esub [Dual Audio] [Hindi DD 5.1 - English 2.0] - 1.5 GB


EXUSIVE UPLOAD BY DesireMoVies.Men


The Nun


POSTER



INFO


General
Format : Matroska
Format version : Version 4
File size : 1.47 GiB
Duration : 1 h 36 min
Overall bit rate : 2 184 kb/s

Video
ID : 1
Format : AVC
Format/Info : Advanced Video Codec
Format profile : [email protected]
Format settings : CABAC / 4 Ref Frames
Format settings, CABAC : Yes
Format settings, ReFrames : 4 frames
Codec ID : V_MPEG4/ISO/AVC
Duration : 1 h 36 min
Bit rate : 1 350 kb/s
Width : 1 280 pixels
Height : 532 pixels
Display aspect ratio : 2.40:1
Frame rate mode : Constant
Frame rate : 23.976 (24000/1001) FPS
Color space : YUV
Chroma subsampling : 4:2:0
Bit depth : 8 bits
Scan type : Progressive
Default : Yes
Forced : No
Color range : Limited
Color primaries : BT.709
Transfer characteristics : BT.709
Matrix coefficients : BT.709

Audio #1
ID : 2
Format : AC-3
Format/Info : Audio Coding 3
Commercial name : Dolby Digital
Codec ID : A_AC3
Duration : 1 h 36 min
Bit rate mode : Constant
Bit rate : 640 kb/s
Channel(s) : 6 channels
Channel layout : L R C LFE Ls Rs
Sampling rate : 48.0 kHz
Frame rate : 31.250 FPS (1536 SPF)
Bit depth : 16 bits
Compression mode : Lossy
Delay relative to video : -21 ms
Stream size : 442 MiB (29%)
Title : DesireMovies.Men
Language : Hindi
Service kind : Complete Main
Default : Yes
Forced : Yes

Audio #2
ID : 3
Format : AAC LC
Format/Info : Advanced Audio Codec Low Complexity
Codec ID : A_AAC-2
Duration : 1 h 36 min
Bit rate : 192 kb/s
Channel(s) : 6 channels
Channel layout : L R C Cb Rls Rb
Sampling rate : 48.0 kHz
Frame rate : 46.875 FPS (1024 SPF)
Compression mode : Lossy
Delay relative to video : -21 ms
Stream size : 133 MiB (9%)
Language : English
Default : No
Forced : No

Text
ID : 4
Format : UTF-8
Codec ID : S_TEXT/UTF8
Codec ID/Info : UTF-8 Plain Text
Duration : 1 h 35 min
Bit rate : 38 b/s
Count of elements : 941
Stream size : 27.0 KiB (0%)
Language : English
Default : Yes
Forced : No


SCREENSHOT



Keep Visit DesireMoVies.trade For More Exusive MoVies


DOWNLOAD LINK

The Nun (2018) 720p Blu-Ray x264 Esub [Dual Audio] [Hindi DD 5 1 The Nun (2018) 720p Blu-Ray x264 Esub [Dual Audio] [Hindi DD 5 1

Latest Top Searches of peoples:

Download The Nun (2018) 720p Blu-Ray x264 Esub [Dual Audio] [Hindi DD 5 1 Full Movie Torrent HD Quality.

Torrent The Nun (2018) 720p Blu-Ray x264 Esub [Dual Audio] [Hindi DD 5 1 Download

Download Free The Nun (2018) 720p Blu-Ray x264 Esub [Dual Audio] [Hindi DD 5 1 Torrent

Download The Nun (2018) 720p Blu-Ray x264 Esub [Dual Audio] [Hindi DD 5 1 Torrent - Kickass Torrents

The Nun (2018) 720p Blu-Ray x264 Esub [Dual Audio] [Hindi DD 5 1 Download Torrent - Extratorrent

The Nun (2018) 720p Blu-Ray x264 Esub [Dual Audio] [Hindi DD 5 1 Downlaod - torrentz2.eu

Download The Nun (2018) 720p Blu-Ray x264 Esub [Dual Audio] [Hindi DD 5 1 Torrent - Limetorrent.info

Torrent The Nun (2018) 720p Blu-Ray x264 Esub [Dual Audio] [Hindi DD 5 1 Download - eztv.ag

The Nun (2018) 720p Blu-Ray x264 Esub [Dual Audio] [Hindi DD 5 1 HD Full Download Free 2018 - 123movies




Tagged with:

Related Movies Torrents