Home / The Nun (2018) 1080p 10bit Bluray x265 HEVC [Org BD 5 1 Hindi + D - Full Movie Online

The Nun (2018) 1080p 10bit Bluray x265 HEVC [Org BD 5 1 Hindi + D - Download Full Movie

date added 1 week ago   
post views 2 views   
torrent id ID: 554468

Torrent Description: Recently Released New Movie On TorrentForest The Nun (2018) 1080p 10bit Bluray x265 HEVC [Org BD 5 1 Hindi + D Full Movie Torrent in HD. The Nun (2018) 1080p 10bit Bluray x265 HEVC [Org BD 5 1 Hindi + D DVD Print Free. 1080p Movie Download The Nun (2018) 1080p 10bit Bluray x265 HEVC [Org BD 5 1 Hindi + D 720p and Bluray Movie Torrent. Scroll Down to Get Download Link.

  • Category : Movies
  • Type : Dubs/Dual Audio
  • Language : Hindi
  • Total size : 3.2 GB
  • Uploaded By : McuDudeS-McuDudeS



Witness the Darkest Chapter in The Conjuring Universe..





The Nun (2018) 1080p 10bit Bluray x265 HEVC [Org BD 5.1 Hindi + DD 5.1 English] ESubs ~ TombDoc


Org Untouched Bluray 5.1 640Kbps Hindi Audio By Rohit {Thanks}


Code:

Format : Matroska
Format version : Version 4
File size : 3.16 GiB
Duration : 1 h 36 min
Overall bit rate : 4 679 kb/s
Writing frontend : TombDoc

Video
ID : 1
Format : HEVC
Format/Info : High Efficiency Video Coding
Format profile : Main [email protected]@Main
Codec ID : V_MPEGH/ISO/HEVC
Duration : 1 h 36 min
Bit rate : 3 645 kb/s
Width : 1 920 pixels
Height : 800 pixels
Display aspect ratio : 2.40:1
Frame rate mode : Constant
Frame rate : 23.976 (24000/1001) FPS
Color space : YUV
Chroma subsampling : 4:2:0
Bit depth : 10 bits
Bits/(Pixel*Frame) : 0.099
Stream size : 2.46 GiB (78%)
Writing library : x265 2.9+2-7e978ed93d60:[Windows][GCC 8.2.0][64 bit] 10bit
Encoding settings : cpuid=1049583 / frame-threads=3 / numa-pools=8 / wpp / no-pmode / no-pme / no-psnr / no-ssim / log-level=2 / input-csp=1 / input-res=1920x800 / interlace=0 / total-frames=138937 / level-idc=0 / high-tier=1 / uhd-bd=0 / ref=4 / no-allow-non-conformance / no-repeat-headers / annexb / no-aud / no-hrd / info / hash=0 / no-temporal-layers / open-gop / min-keyint=23 / keyint=250 / gop-lookahead=0 / bframes=8 / b-adapt=2 / b-pyramid / bframe-bias=0 / rc-lookahead=25 / lookahead-slices=4 / scenecut=40 / radl=0 / no-intra-refresh / ctu=64 / min-cu-size=8 / rect / no-amp / max-tu-size=32 / tu-inter-depth=1 / tu-intra-depth=1 / limit-tu=0 / rdoq-level=2 / dynamic-rd=0.00 / no-ssim-rd / signhide / no-tskip / nr-intra=0 / nr-inter=0 / no-constrained-intra / strong-intra-smoothing / max-merge=3 / limit-refs=3 / limit-modes / me=3 / subme=3 / merange=57 / temporal-mvp / weightp / no-weightb / no-analyze-src-pics / deblock=0:0 / sao / no-sao-non-deblock / rd=4 / no-early-skip / rskip / no-fast-intra / no-tskip-fast / no-cu-lossless / no-b-intra / no-splitrd-skip / rdpenalty=0 / psy-rd=2.00 / psy-rdoq=0.00 / no-rd-refine / no-lossless / cbqpoffs=0 / crqpoffs=0 / rc=abr / bitrate=3650 / qcomp=0.60 / qpstep=4 / stats-write=0 / stats-read=2 / cplxblur=20.0 / qblur=0.5 / ipratio=1.40 / pbratio=1.30 / aq-mode=3 / aq-strength=1.00 / cutree / zone-count=0 / no-strict-cbr / qg-size=32 / no-rc-grain / qpmax=69 / qpmin=0 / no-const-vbv / sar=0 / overscan=0 / videoformat=5 / range=0 / colorprim=2 / transfer=2 / colormatrix=2 / chromaloc=0 / display-window=0 / max-cll=0,0 / min-luma=0 / max-luma=1023 / log2-max-poc-lsb=8 / vui-timing-info / vui-hrd-info / slices=1 / no-opt-qp-pps / no-opt-ref-list-length-pps / no-multi-pass-opt-rps / scenecut-bias=0.05 / no-opt-cu-delta-qp / aq-motion / no-hdr / no-hdr-opt / no-dhdr10-opt / no-idr-recovery-sei / analysis-reuse-level=5 / scale-factor=0 / refine-intra=0 / refine-inter=0 / refine-mv=0 / no-limit-sao / ctu-info=0 / no-lowpass-dct / refine-mv-type=0 / copy-pic=1 / max-ausize-factor=1.0 / no-dynamic-refine / no-single-sei
Default : Yes
Forced : No

Audio #1
ID : 2
Format : AC-3
Format/Info : Audio Coding 3
Commercial name : Dolby Digital
Codec ID : A_AC3
Duration : 1 h 36 min
Bit rate mode : Constant
Bit rate : 640 kb/s
Channel(s) : 6 channels
Channel layout : L R C LFE Ls Rs
Sampling rate : 48.0 kHz
Frame rate : 31.250 FPS (1536 SPF)
Bit depth : 16 bits
Compression mode : Lossy
Stream size : 442 MiB (14%)
Title : Org BD 5.1 640Kbps ~ TombDoc
Language : Hindi
Service kind : Complete Main
Default : Yes
Forced : Yes

Audio #2
ID : 3
Format : AC-3
Format/Info : Audio Coding 3
Commercial name : Dolby Digital
Codec ID : A_AC3
Duration : 1 h 36 min
Bit rate mode : Constant
Bit rate : 384 kb/s
Channel(s) : 6 channels
Channel layout : L R C LFE Ls Rs
Sampling rate : 48.0 kHz
Frame rate : 31.250 FPS (1536 SPF)
Bit depth : 16 bits
Compression mode : Lossy
Stream size : 265 MiB (8%)
Title : DD 5.1 English
Language : English
Service kind : Complete Main
Default : No
Forced : No

Text
ID : 4
Format : PGS
Muxing mode : zlib
Codec ID : S_HDMV/PGS
Codec ID/Info : Picture based subtitle format used on BDs/HD-DVDs
Duration : 1 h 35 min
Bit rate : 25.5 kb/s
Count of elements : 1885
Stream size : 17.4 MiB (1%)
Title : Eng BD-PGS
Language : English
Default : Yes
Forced : Yes

Menu
00:00:00.000 : en:00:00:00.000
00:08:42.772 : en:00:08:42.772
00:17:55.074 : en:00:17:55.074
00:29:17.506 : en:00:29:17.506
00:38:05.033 : en:00:38:05.033
00:48:49.802 : en:00:48:49.802
00:58:49.192 : en:00:58:49.192
01:09:16.944 : en:01:09:16.944
01:18:14.565 : en:01:18:14.565
01:24:18.637 : en:01:24:18.637
01:32:30.295 : en:01:32:30.295




Code:

Source: The.Nun.2018.1080p.BluRay.AVC.TrueHD.7.1.Atmos-FGT
File size: 25.7 GiB
Duration: 1 h 36 min
Overall bit rate mode: Variable
Overall bit rate: 38.1 Mb/s



DOWNLOAD LINK

The Nun (2018) 1080p 10bit Bluray x265 HEVC [Org BD 5 1 Hindi + D The Nun (2018) 1080p 10bit Bluray x265 HEVC [Org BD 5 1 Hindi + D

Latest Top Searches of peoples:

Download The Nun (2018) 1080p 10bit Bluray x265 HEVC [Org BD 5 1 Hindi + D Full Movie Torrent HD Quality.

Torrent The Nun (2018) 1080p 10bit Bluray x265 HEVC [Org BD 5 1 Hindi + D Download

Download Free The Nun (2018) 1080p 10bit Bluray x265 HEVC [Org BD 5 1 Hindi + D Torrent

Download The Nun (2018) 1080p 10bit Bluray x265 HEVC [Org BD 5 1 Hindi + D Torrent - Kickass Torrents

The Nun (2018) 1080p 10bit Bluray x265 HEVC [Org BD 5 1 Hindi + D Download Torrent - Extratorrent

The Nun (2018) 1080p 10bit Bluray x265 HEVC [Org BD 5 1 Hindi + D Downlaod - torrentz2.eu

Download The Nun (2018) 1080p 10bit Bluray x265 HEVC [Org BD 5 1 Hindi + D Torrent - Limetorrent.info

Torrent The Nun (2018) 1080p 10bit Bluray x265 HEVC [Org BD 5 1 Hindi + D Download - eztv.ag

The Nun (2018) 1080p 10bit Bluray x265 HEVC [Org BD 5 1 Hindi + D HD Full Download Free 2018 - 123movies




Tagged with:

Related Movies Torrents