Home / The Movie 2011 X264 720P Esub Bluray Dual Audio English Hindi GOP - Full Movie Online

The Movie 2011 X264 720P Esub Bluray Dual Audio English Hindi GOP - Download Full Movie

date added 3 weeks ago   
post views 5 views   
torrent id ID: 546186

Torrent Description: Recently Released New Movie On TorrentForest The Movie 2011 X264 720P Esub Bluray Dual Audio English Hindi GOP Full Movie Torrent in HD. The Movie 2011 X264 720P Esub Bluray Dual Audio English Hindi GOP DVD Print Free. 1080p Movie Download The Movie 2011 X264 720P Esub Bluray Dual Audio English Hindi GOP 720p and Bluray Movie Torrent. Scroll Down to Get Download Link.

  • Category : Movies
  • Type : Dubs/Dual Audio
  • Language : English
  • Total size : 350.1 MB
  • Uploaded By : PENDUDESI-PENDUDESI

https://www.gopisahi.pw/

Format : Matroska
Format version : Version 4 / Version 2
File size : 350 MiB
Duration : 54 min 44 s
Overall bit rate : 894 kb/s
Movie name : The Jungle Bunch The Movie 2011 GOPISAHI

Video
Format : AVC
Format/Info : Advanced Video Codec
Codec ID : V_MPEG4/ISO/AVC
Duration : 54 min 44 s
Bit rate : 699 kb/s
Width : 1 280 pixels
Height : 720 pixels
Display aspect ratio : 16:9
Frame rate mode : Constant
Frame rate : 23.976 (23976/1000) FPS
Color space : YUV
Chroma subsampling : 4:2:0
Bit depth : 8 bits
Scan type : Progressive
Bits/(Pixel*Frame) : 0.032
Stream size : 274 MiB (78%)
Title : GOPISAHI
Writing library : x264 core 155 r2901 7d0ff22

Audio #1
Format : AAC
Duration : 54 min 42 s
Bit rate : 96.0 kb/s
Channel(s) : 2 channels
Channel positions : Front: L R
Sampling rate : 48.0 kHz
Frame rate : 46.875 FPS (1024 SPF)
Compression mode : Lossy
Delay relative to video : 2 s 221 ms
Stream size : 37.7 MiB (11%)
Title : GOPISAHI
Language : Hindi

Audio #2
Format : AAC
Duration : 54 min 44 s
Bit rate : 96.0 kb/s
Channel(s) : 2 channels
Channel positions : Front: L R
Sampling rate : 48.0 kHz
Frame rate : 46.875 FPS (1024 SPF)
Compression mode : Lossy
Delay relative to video : -21 ms
Stream size : 37.7 MiB (11%)
Title : GOPISAHI
Language : English


DOWNLOAD LINK

The Movie 2011 X264 720P Esub Bluray Dual Audio English Hindi GOP The Movie 2011 X264 720P Esub Bluray Dual Audio English Hindi GOP

Latest Top Searches of peoples:

Download The Movie 2011 X264 720P Esub Bluray Dual Audio English Hindi GOP Full Movie Torrent HD Quality.

Torrent The Movie 2011 X264 720P Esub Bluray Dual Audio English Hindi GOP Download

Download Free The Movie 2011 X264 720P Esub Bluray Dual Audio English Hindi GOP Torrent

Download The Movie 2011 X264 720P Esub Bluray Dual Audio English Hindi GOP Torrent - Kickass Torrents

The Movie 2011 X264 720P Esub Bluray Dual Audio English Hindi GOP Download Torrent - Extratorrent

The Movie 2011 X264 720P Esub Bluray Dual Audio English Hindi GOP Downlaod - torrentz2.eu

Download The Movie 2011 X264 720P Esub Bluray Dual Audio English Hindi GOP Torrent - Limetorrent.info

Torrent The Movie 2011 X264 720P Esub Bluray Dual Audio English Hindi GOP Download - eztv.ag

The Movie 2011 X264 720P Esub Bluray Dual Audio English Hindi GOP HD Full Download Free 2018 - 123movies




Tagged with:

Related Movies Torrents