Home / Shonar Pahar (2018) Bengali 720p HDRip x264 AAC 1 2GB - MovCr - Full Movie Online

Shonar Pahar (2018) Bengali 720p HDRip x264 AAC 1 2GB - MovCr - Download Full Movie

date added 6 days ago   
post views 5 views   
torrent id ID: 543550

Torrent Description: Recently Released New Movie On TorrentForest Shonar Pahar (2018) Bengali 720p HDRip x264 AAC 1 2GB - MovCr Full Movie Torrent in HD. Shonar Pahar (2018) Bengali 720p HDRip x264 AAC 1 2GB - MovCr DVD Print Free. 1080p Movie Download Shonar Pahar (2018) Bengali 720p HDRip x264 AAC 1 2GB - MovCr 720p and Bluray Movie Torrent. Scroll Down to Get Download Link.

  • Category : Movies
  • Type : HD
  • Language : Bengali/Bangla
  • Total size : 1.2 GB
  • Uploaded By : ictv-ictv

www.movcr.cc


Shonar Pahar (2018) Bengali 720p HDRip x264 AAC 1.2GB - MovCr



https://www.imdb.com/title/tt8347882/




General
Unique ID : 304076133633475845725413003937766944184 (0xE4C2EEE08C1ED9D5FF0A21FC30C3ADB8)
Complete name : www.MovCr.cc - Shonar Pahar (2018) Bengali 720p HDRip x264 AAC 1.2GB - MovCr.mkv
Format : Matroska
Format version : Version 4 / Version 2
File size : 1.18 GiB
Duration : 2 h 11 min
Overall bit rate : 1 281 kb/s
Movie name : www.MovCr.cc
Encoded date : UTC 2018-11-09 19:02:56
Writing application : mkvmerge v26.0.0 ('In The Game') 64-bit
Writing library : libebml v1.3.6 + libmatroska v1.4.9

Video
ID : 1
Format : AVC
Format/Info : Advanced Video Codec
Format profile : [email protected]
Format settings : 2 Ref Frames
Format settings, CABAC : No
Format settings, RefFrames : 2 frames
Format settings, GOP : M=1, N=25
Codec ID : V_MPEG4/ISO/AVC
Duration : 2 h 11 min
Bit rate : 1 182 kb/s
Width : 1 280 pixels
Height : 544 pixels
Display aspect ratio : 2.35:1
Frame rate mode : Constant
Frame rate : 25.000 FPS
Color space : YUV
Chroma subsampling : 4:2:0
Bit depth : 8 bits
Scan type : Progressive
Bits/(Pixel*Frame) : 0.068
Stream size : 1.08 GiB (92%)
Title : www.MovCr.cc
Default : Yes
Forced : No

Audio
ID : 2
Format : AAC
Format/Info : Advanced Audio Codec
Format profile : LC
Codec ID : A_AAC-2
Duration : 2 h 11 min
Bit rate : 96.0 kb/s
Channel(s) : 2 channels
Channel positions : Front: L R
Sampling rate : 48.0 kHz
Frame rate : 46.875 FPS (1024 SPF)
Compression mode : Lossy
Stream size : 90.7 MiB (8%)
Title : www.MovCr.cc
Language : Bengali
Default : Yes
Forced : No









DOWNLOAD LINK

Shonar Pahar (2018) Bengali 720p HDRip x264 AAC 1 2GB - MovCr Shonar Pahar (2018) Bengali 720p HDRip x264 AAC 1 2GB - MovCr

Latest Top Searches of peoples:

Download Shonar Pahar (2018) Bengali 720p HDRip x264 AAC 1 2GB - MovCr Full Movie Torrent HD Quality.

Torrent Shonar Pahar (2018) Bengali 720p HDRip x264 AAC 1 2GB - MovCr Download

Download Free Shonar Pahar (2018) Bengali 720p HDRip x264 AAC 1 2GB - MovCr Torrent

Download Shonar Pahar (2018) Bengali 720p HDRip x264 AAC 1 2GB - MovCr Torrent - Kickass Torrents

Shonar Pahar (2018) Bengali 720p HDRip x264 AAC 1 2GB - MovCr Download Torrent - Extratorrent

Shonar Pahar (2018) Bengali 720p HDRip x264 AAC 1 2GB - MovCr Downlaod - torrentz2.eu

Download Shonar Pahar (2018) Bengali 720p HDRip x264 AAC 1 2GB - MovCr Torrent - Limetorrent.info

Torrent Shonar Pahar (2018) Bengali 720p HDRip x264 AAC 1 2GB - MovCr Download - eztv.ag

Shonar Pahar (2018) Bengali 720p HDRip x264 AAC 1 2GB - MovCr HD Full Download Free 2018 - 123movies




Tagged with:

Related Movies Torrents