Home / Rambo Trilogy 2160p UHD BluRay x265 10Bit HEVC Dual Audio [Hindi - Full Movie Online

Rambo Trilogy 2160p UHD BluRay x265 10Bit HEVC Dual Audio [Hindi - Download Full Movie

date added 1 week ago   
post views 4 views   
torrent id ID: 554463

Torrent Description: Recently Released New Movie On TorrentForest Rambo Trilogy 2160p UHD BluRay x265 10Bit HEVC Dual Audio [Hindi Full Movie Torrent in HD. Rambo Trilogy 2160p UHD BluRay x265 10Bit HEVC Dual Audio [Hindi DVD Print Free. 1080p Movie Download Rambo Trilogy 2160p UHD BluRay x265 10Bit HEVC Dual Audio [Hindi 720p and Bluray Movie Torrent. Scroll Down to Get Download Link.

  • Category : Movies
  • Type : Dubs/Dual Audio
  • Language : Hindi
  • Total size : 21.1 GB
  • Uploaded By : DesiZombies-DesiZombies

[align=center]





[font=Comic Sans MS]Movies:
Rambo First Blood (1982) 2160p UHD BluRay x265 10Bit HEVC Dual Audio [Hindi DD 5.1 448 Kbps - English DD 5.1 640 Kbps] [Dzrg Torrents].mkv
Rambo First Blood Part II (1985) 2160p UHD BluRay x265 10Bit HEVC Dual Audio [Hindi DD 5.1 448 Kbps - English DD 5.1 640 Kbps] [Dzrg Torrents].mkv
Rambo III (1988) 2160p UHD BluRay x265 10Bit HEVC Dual Audio [Hindi DD 5.1 448 Kbps - English DD 5.1 640 Kbps] [Dzrg Torrents].mkv
[/font]




[font=Comic Sans MS]Taglines: He just wanted something to eat. [/font]

[video]https://www.youtube.com/watch?v=IAqLKlxY3Eo[/video]




[font=Comic Sans MS]
General
Unique ID : 248279348646424522151969417753274143658 (0xBAC8DCFB88D028A393D2E6D83D18D3AA)
Format : Matroska
Format version : Version 4
File size : 6.84 GiB|6.96 GiB|7.27 GiB
Duration : 1 h 33 min|1 h 35 min|1 h 41 min
Overall bit rate : 10.5 Mb/s
Encoded date : UTC 2018-12-05 13:01:27
Writing application : mkvmerge v13.0.0 ('The Juggler') 64bit
Writing library : libebml v1.3.4 + libmatroska v1.4.5
[/font]



[font=Comic Sans MS]
Video
Format : HEVC
Format/Info : High Efficiency Video Coding
Format profile : Main [email protected]@Main
Codec ID : V_MPEGH/ISO/HEVC
Duration : 1 h 33 min
Bit rate : 9 394 kb/s
Width : 3 840 pixels
Height : 1 636 pixels
Display aspect ratio : 2.35:1
Frame rate mode : Constant
Frame rate : 23.976 (24000/1001) FPS
Color space : YUV
Chroma subsampling : 4:2:0
Bit depth : 10 bits
Bits/(Pixel*Frame) : 0.062
Stream size : 6.13 GiB (90%)
[/font]








[font=Comic Sans MS]
Audio #1
ID : 2
Format : AC-3
Format/Info : Audio Coding 3
Commercial name : Dolby Digital
Codec ID : A_AC3
Duration : 1 h 33 min
Bit rate mode : Constant
Bit rate : 448 kb/s
Channel(s) : 6 channels
Channel layout : L R C LFE Ls Rs
Sampling rate : 48.0 kHz
Frame rate : 31.250 FPS (1536 SPF)
Bit depth : 16 bits
Compression mode : Lossy
Stream size : 298 MiB (4%)
Title : [Hindi DD 5.1 448 Kbps] [Dzrg Torrents]
Language : Hindi
Service kind : Complete Main
Default : Yes
Forced : No

Audio #2
ID : 3
Format : AC-3
Format/Info : Audio Coding 3
Commercial name : Dolby Digital
Codec ID : A_AC3
Duration : 1 h 33 min
Bit rate mode : Constant
Bit rate : 640 kb/s
Channel(s) : 6 channels
Channel layout : L R C LFE Ls Rs
Sampling rate : 48.0 kHz
Frame rate : 31.250 FPS (1536 SPF)
Bit depth : 16 bits
Compression mode : Lossy
Stream size : 428 MiB (6%)
Title : [English DD 5.1 640 Kbps] [Dzrg Torrents]
Language : English
Service kind : Complete Main
Default : No
Forced : No
[/font]




[font=Comic Sans MS]
Text
ID : 4
Format : PGS
Muxing mode : zlib
Codec ID : S_HDMV/PGS
Codec ID/Info : Picture based subtitle format used on BDs/HD-DVDs
Duration : 1 h 30 min
Bit rate : 15.9 kb/s
Count of elements : 1216
Stream size : 10.3 MiB (0%)
Title : [PGS] [Dzrg Torrents]
Language : English
Default : Yes
Forced : No
[/font]


[font=Comic Sans MS]
Menu
00:00:00.000 : :00:00:00.000
00:10:13.197 : :00:10:13.167
00:20:49.210 : :00:20:49.208
00:30:31.459 : :00:30:31.417
00:38:40.991 : :00:38:40.833
00:47:38.655 : :00:47:38.625
00:56:32.815 : :00:56:32.708
01:06:07.183 : :01:06:07.125
01:16:08.618 : :01:16:08.583
01:24:46.345 : :01:24:46.167
[/font]


Please Contribute Through Bitcoin-378zyc7YCno2H3kpqQomw1aJaUTaoeQWGC





[font=Comic Sans MS]Seeding From High Server[/font]

[/align]

DOWNLOAD LINK

Rambo Trilogy 2160p UHD BluRay x265 10Bit HEVC Dual Audio [Hindi Rambo Trilogy 2160p UHD BluRay x265 10Bit HEVC Dual Audio [Hindi

Latest Top Searches of peoples:

Download Rambo Trilogy 2160p UHD BluRay x265 10Bit HEVC Dual Audio [Hindi Full Movie Torrent HD Quality.

Torrent Rambo Trilogy 2160p UHD BluRay x265 10Bit HEVC Dual Audio [Hindi Download

Download Free Rambo Trilogy 2160p UHD BluRay x265 10Bit HEVC Dual Audio [Hindi Torrent

Download Rambo Trilogy 2160p UHD BluRay x265 10Bit HEVC Dual Audio [Hindi Torrent - Kickass Torrents

Rambo Trilogy 2160p UHD BluRay x265 10Bit HEVC Dual Audio [Hindi Download Torrent - Extratorrent

Rambo Trilogy 2160p UHD BluRay x265 10Bit HEVC Dual Audio [Hindi Downlaod - torrentz2.eu

Download Rambo Trilogy 2160p UHD BluRay x265 10Bit HEVC Dual Audio [Hindi Torrent - Limetorrent.info

Torrent Rambo Trilogy 2160p UHD BluRay x265 10Bit HEVC Dual Audio [Hindi Download - eztv.ag

Rambo Trilogy 2160p UHD BluRay x265 10Bit HEVC Dual Audio [Hindi HD Full Download Free 2018 - 123movies




Tagged with:

Related Movies Torrents