Home / Muscle Heat 2002 x264 720p Dual Audio Thai Hindi GOPISAHI - Full Movie Online

Muscle Heat 2002 x264 720p Dual Audio Thai Hindi GOPISAHI - Download Full Movie

date added 3 weeks ago   
post views 6 views   
torrent id ID: 546188

Torrent Description: Recently Released New Movie On TorrentForest Muscle Heat 2002 x264 720p Dual Audio Thai Hindi GOPISAHI Full Movie Torrent in HD. Muscle Heat 2002 x264 720p Dual Audio Thai Hindi GOPISAHI DVD Print Free. 1080p Movie Download Muscle Heat 2002 x264 720p Dual Audio Thai Hindi GOPISAHI 720p and Bluray Movie Torrent. Scroll Down to Get Download Link.

  • Category : Movies
  • Type : Dubs/Dual Audio
  • Language : English
  • Total size : 525.7 MB
  • Uploaded By : PENDUDESI-PENDUDESI

https://www.gopisahi.pw/

Format : Matroska
Format version : Version 4 / Version 2
File size : 526 MiB
Duration : 1 h 32 min
Overall bit rate : 794 kb/s
Movie name : Muscle Heat 2002 GOPISAHI

Video
Format : AVC
Format/Info : Advanced Video Codec
Codec ID : V_MPEG4/ISO/AVC
Duration : 1 h 32 min
Bit rate : 599 kb/s
Width : 1 280 pixels
Height : 700 pixels
Display aspect ratio : 1.85:1
Frame rate mode : Constant
Frame rate : 25.000 FPS
Color space : YUV
Chroma subsampling : 4:2:0
Bit depth : 8 bits
Scan type : Progressive
Bits/(Pixel*Frame) : 0.027
Stream size : 397 MiB (75%)
Title : GOPISAHI
Writing library : x264 core 155 r2901 7d0ff22

Audio #1
Format : AAC
Duration : 1 h 32 min
Bit rate : 96.0 kb/s
Channel(s) : 2 channels
Channel positions : Front: L R
Sampling rate : 48.0 kHz
Frame rate : 46.875 FPS (1024 SPF)
Compression mode : Lossy
Delay relative to video : -21 ms
Stream size : 63.5 MiB (12%)
Title : GOPISAHI
Language : Hindi

Audio #2
Format : AAC
Duration : 1 h 32 min
Bit rate : 96.0 kb/s
Channel(s) : 2 channels
Channel positions : Front: L R
Sampling rate : 48.0 kHz
Frame rate : 46.875 FPS (1024 SPF)
Compression mode : Lossy
Delay relative to video : 40 ms
Stream size : 63.7 MiB (12%)
Title : GOPISAHI
Language : Thai


DOWNLOAD LINK

Muscle Heat 2002 x264 720p Dual Audio Thai Hindi GOPISAHI Muscle Heat 2002 x264 720p Dual Audio Thai Hindi GOPISAHI

Latest Top Searches of peoples:

Download Muscle Heat 2002 x264 720p Dual Audio Thai Hindi GOPISAHI Full Movie Torrent HD Quality.

Torrent Muscle Heat 2002 x264 720p Dual Audio Thai Hindi GOPISAHI Download

Download Free Muscle Heat 2002 x264 720p Dual Audio Thai Hindi GOPISAHI Torrent

Download Muscle Heat 2002 x264 720p Dual Audio Thai Hindi GOPISAHI Torrent - Kickass Torrents

Muscle Heat 2002 x264 720p Dual Audio Thai Hindi GOPISAHI Download Torrent - Extratorrent

Muscle Heat 2002 x264 720p Dual Audio Thai Hindi GOPISAHI Downlaod - torrentz2.eu

Download Muscle Heat 2002 x264 720p Dual Audio Thai Hindi GOPISAHI Torrent - Limetorrent.info

Torrent Muscle Heat 2002 x264 720p Dual Audio Thai Hindi GOPISAHI Download - eztv.ag

Muscle Heat 2002 x264 720p Dual Audio Thai Hindi GOPISAHI HD Full Download Free 2018 - 123movies




Tagged with:

Related Movies Torrents