Home / Mitron (2018) Hindi 720p WEB-Rip x264 AC3 DD5 1 - ESUB ~ Ranvijay - Full Movie Online

Mitron (2018) Hindi 720p WEB-Rip x264 AC3 DD5 1 - ESUB ~ Ranvijay - Download Full Movie

date added 4 days ago   
post views 3 views   
torrent id ID: 543541

Torrent Description: Recently Released New Movie On TorrentForest Mitron (2018) Hindi 720p WEB-Rip x264 AC3 DD5 1 - ESUB ~ Ranvijay Full Movie Torrent in HD. Mitron (2018) Hindi 720p WEB-Rip x264 AC3 DD5 1 - ESUB ~ Ranvijay DVD Print Free. 1080p Movie Download Mitron (2018) Hindi 720p WEB-Rip x264 AC3 DD5 1 - ESUB ~ Ranvijay 720p and Bluray Movie Torrent. Scroll Down to Get Download Link.

  • Category : Movies
  • Type : Bollywood
  • Language : Hindi
  • Total size : 1.4 GB
  • Uploaded By : TheFighter-TheFighter







Mitron (2018) Hindi 720p WEB-Rip x264 AC3 DD5.1 - ESUB ~ Ranvijay

Buy RDP Online




Source :NG
Format : Matroska
Format version : Version 4 / Version 2
File size : 1.40 GiB
Duration : 1 h 56 min
Overall bit rate : 1 726 kb/s
Movie name : Mitron (2018) Hindi 720p WEB-Rip x264 AC3 DD5.1 - ESUB ~ Ranvijay

Video
ID : 1
Format : AVC
Format/Info : Advanced Video Codec
Duration : 1 h 56 min
Bit rate : 1 500 kb/s
Width : 1 280 pixels
Height : 544 pixels
Display aspect ratio : 2.35:1
Frame rate mode : Constant
Frame rate : 24.000 FPS
Color space : YUV
Chroma subsampling : 4:2:0
Bit depth : 8 bits
Scan type : Progressive
Bits/(Pixel*Frame) : 0.090
Stream size : 1.22 GiB (87%)
Title : ~Ranvijay~

Audio
ID : 2
Format : AC-3
Format/Info : Audio Coding 3
Codec ID : A_AC3
Duration : 1 h 56 min
Bit rate mode : Constant
Bit rate : 224 kb/s
Channel(s) : 6 channels
Channel positions : Front: L C R, Side: L R, LFE
Sampling rate : 48.0 kHz
Frame rate : 31.250 FPS (1536 SPF)
Bit depth : 16 bits
Compression mode : Lossy
Stream size : 186 MiB (13%)
Title : ~Ranvijay~
Service kind : Complete Main
Default : Yes
Forced : No

Text
ID : 3
Format : UTF-8
Codec ID : S_TEXT/UTF8
Codec ID/Info : UTF-8 Plain Text
Duration : 1 h 55 min
Bit rate : 72 b/s
Count of elements : 2102
Stream size : 61.3 KiB (0%)
Title : ~Ranvijay~
Language : English
Default : No
Forced : No













Don't walk as you are king, walk as you don't care who the king is....!!


DOWNLOAD LINK

Mitron (2018) Hindi 720p WEB-Rip x264 AC3 DD5 1 - ESUB ~ Ranvijay Mitron (2018) Hindi 720p WEB-Rip x264 AC3 DD5 1 - ESUB ~ Ranvijay

Latest Top Searches of peoples:

Download Mitron (2018) Hindi 720p WEB-Rip x264 AC3 DD5 1 - ESUB ~ Ranvijay Full Movie Torrent HD Quality.

Torrent Mitron (2018) Hindi 720p WEB-Rip x264 AC3 DD5 1 - ESUB ~ Ranvijay Download

Download Free Mitron (2018) Hindi 720p WEB-Rip x264 AC3 DD5 1 - ESUB ~ Ranvijay Torrent

Download Mitron (2018) Hindi 720p WEB-Rip x264 AC3 DD5 1 - ESUB ~ Ranvijay Torrent - Kickass Torrents

Mitron (2018) Hindi 720p WEB-Rip x264 AC3 DD5 1 - ESUB ~ Ranvijay Download Torrent - Extratorrent

Mitron (2018) Hindi 720p WEB-Rip x264 AC3 DD5 1 - ESUB ~ Ranvijay Downlaod - torrentz2.eu

Download Mitron (2018) Hindi 720p WEB-Rip x264 AC3 DD5 1 - ESUB ~ Ranvijay Torrent - Limetorrent.info

Torrent Mitron (2018) Hindi 720p WEB-Rip x264 AC3 DD5 1 - ESUB ~ Ranvijay Download - eztv.ag

Mitron (2018) Hindi 720p WEB-Rip x264 AC3 DD5 1 - ESUB ~ Ranvijay HD Full Download Free 2018 - 123movies




Tagged with:

Related Movies Torrents