Home / Mission Impossible Fallout 2018 IMAX BDRip XviD AC3 With Sample L - Full Movie Online

Mission Impossible Fallout 2018 IMAX BDRip XviD AC3 With Sample L - Download Full Movie

date added 4 weeks ago   
post views 9 views   
torrent id ID: 545492

Torrent Description: Recently Released New Movie On TorrentForest Mission Impossible Fallout 2018 IMAX BDRip XviD AC3 With Sample L Full Movie Torrent in HD. Mission Impossible Fallout 2018 IMAX BDRip XviD AC3 With Sample L DVD Print Free. 1080p Movie Download Mission Impossible Fallout 2018 IMAX BDRip XviD AC3 With Sample L 720p and Bluray Movie Torrent. Scroll Down to Get Download Link.

  • Category : Movies
  • Type : Divx/Xvid
  • Language : English
  • Total size : 1.3 GB
  • Uploaded By : LifeLongg-LifeLongg



******************************Thumbnail:**********************



******************************Screenshots:********************

Screenshot 1

Screenshot 2

Screenshot 3

Screenshot 4

Screenshot 5


************************************************************

Mission.Impossible.Fallout.2018.IMAX.BDRip.XviD.AC3.With.Sample.LLG.mp4
Format : MPEG-4
Format profile : Base Media
Codec ID : isom (isom/iso2/avc1/mp41)
File size : 1.32 GiB
Duration : 2 h 27 min
Overall bit rate mode : Variable
Overall bit rate : 1 285 kb/s
Writing application : Lavf57.83.100

Video
ID : 1
Format : AVC
Format/Info : Advanced Video Codec
Format profile : [email protected]
Format settings : CABAC / 1 Ref Frames
Format settings, CABAC : Yes
Format settings, RefFrames : 1 frame
Codec ID : avc1
Codec ID/Info : Advanced Video Coding
Duration : 2 h 27 min
Bit rate mode : Variable
Bit rate : 898 kb/s
Maximum bit rate : 2 700 kb/s
Width : 720 pixels
Height : 384 pixels
Display aspect ratio : 1.85:1
Frame rate mode : Constant
Frame rate : 23.976 (23976/1000) FPS
Color space : YUV
Chroma subsampling : 4:2:0
Bit depth : 8 bits
Scan type : Progressive
Bits/(Pixel*Frame) : 0.135
Stream size : 946 MiB (70%)
Codec configuration box : avcC

Audio
ID : 2
Format : AC-3
Format/Info : Audio Coding 3
Commercial name : Dolby Digital
Codec ID : ac-3
Duration : 2 h 27 min
Bit rate mode : Constant
Bit rate : 384 kb/s
Channel(s) : 6 channels
Channel layout : L R C LFE Ls Rs
Sampling rate : 48.0 kHz
Frame rate : 31.250 FPS (1536 SPF)
Bit depth : 16 bits
Compression mode : Lossy
Stream size : 405 MiB (30%)
Service kind : Complete Main
Default : Yes
Alternate group : 1


**************************************************************

DOWNLOAD LINK

Mission Impossible Fallout 2018 IMAX BDRip XviD AC3 With Sample L Mission Impossible Fallout 2018 IMAX BDRip XviD AC3 With Sample L

Latest Top Searches of peoples:

Download Mission Impossible Fallout 2018 IMAX BDRip XviD AC3 With Sample L Full Movie Torrent HD Quality.

Torrent Mission Impossible Fallout 2018 IMAX BDRip XviD AC3 With Sample L Download

Download Free Mission Impossible Fallout 2018 IMAX BDRip XviD AC3 With Sample L Torrent

Download Mission Impossible Fallout 2018 IMAX BDRip XviD AC3 With Sample L Torrent - Kickass Torrents

Mission Impossible Fallout 2018 IMAX BDRip XviD AC3 With Sample L Download Torrent - Extratorrent

Mission Impossible Fallout 2018 IMAX BDRip XviD AC3 With Sample L Downlaod - torrentz2.eu

Download Mission Impossible Fallout 2018 IMAX BDRip XviD AC3 With Sample L Torrent - Limetorrent.info

Torrent Mission Impossible Fallout 2018 IMAX BDRip XviD AC3 With Sample L Download - eztv.ag

Mission Impossible Fallout 2018 IMAX BDRip XviD AC3 With Sample L HD Full Download Free 2018 - 123movies




Tagged with:

Related Movies Torrents