Home / Mission Impossible Fallout 2018 IMAX 1080p Bluray X264 LLG - Full Movie Online

Mission Impossible Fallout 2018 IMAX 1080p Bluray X264 LLG - Download Full Movie

date added 4 weeks ago   
post views 5 views   
torrent id ID: 545486

Torrent Description: Recently Released New Movie On TorrentForest Mission Impossible Fallout 2018 IMAX 1080p Bluray X264 LLG Full Movie Torrent in HD. Mission Impossible Fallout 2018 IMAX 1080p Bluray X264 LLG DVD Print Free. 1080p Movie Download Mission Impossible Fallout 2018 IMAX 1080p Bluray X264 LLG 720p and Bluray Movie Torrent. Scroll Down to Get Download Link.

  • Category : Movies
  • Type : HD
  • Language : English
  • Total size : 4.5 GB
  • Uploaded By : LifeLongg-LifeLongg



******************************Thumbnail:**********************



******************************Screenshots:********************

Screenshot 1

Screenshot 2

Screenshot 3

Screenshot 4

Screenshot 5


************************************************************

Mission.Impossible.Fallout.2018.IMAX.1080p.Bluray.X264.LLG.mp4
Format : MPEG-4
Format profile : Base Media
Codec ID : isom (isom/iso2/avc1/mp41)
File size : 4.23 GiB
Duration : 2 h 27 min
Overall bit rate mode : Variable
Overall bit rate : 4 106 kb/s
Movie name : EVO
Encoded date : UTC 2018-11-14 02:11:38
Tagged date : UTC 2018-11-14 02:11:38
Writing application : Lavf57.83.100

Video
ID : 1
Format : AVC
Format/Info : Advanced Video Codec
Format profile : [email protected]
Format settings : CABAC / 1 Ref Frames
Format settings, CABAC : Yes
Format settings, RefFrames : 1 frame
Codec ID : avc1
Codec ID/Info : Advanced Video Coding
Duration : 2 h 27 min
Bit rate mode : Variable
Bit rate : 3 590 kb/s
Maximum bit rate : 10.5 Mb/s
Width : 1 920 pixels
Height : 1 016 pixels
Display aspect ratio : 1.890
Frame rate mode : Constant
Frame rate : 23.976 (23976/1000) FPS
Color space : YUV
Chroma subsampling : 4:2:0
Bit depth : 8 bits
Scan type : Progressive
Bits/(Pixel*Frame) : 0.077
Stream size : 3.70 GiB (87%)


Audio
ID : 2
Format : AC-3
Format/Info : Audio Coding 3
Commercial name : Dolby Digital
Codec ID : ac-3
Duration : 2 h 27 min
Bit rate mode : Constant
Bit rate : 512 kb/s
Channel(s) : 6 channels
Channel layout : L R C LFE Ls Rs
Sampling rate : 48.0 kHz
Frame rate : 31.250 FPS (1536 SPF)
Bit depth : 16 bits
Compression mode : Lossy
Stream size : 540 MiB (12%)
Title : Surround
Language : English
Service kind : Complete Main
Default : Yes
Alternate group : 1



**************************************************************

DOWNLOAD LINK

Mission Impossible Fallout 2018 IMAX 1080p Bluray X264 LLG Mission Impossible Fallout 2018 IMAX 1080p Bluray X264 LLG

Latest Top Searches of peoples:

Download Mission Impossible Fallout 2018 IMAX 1080p Bluray X264 LLG Full Movie Torrent HD Quality.

Torrent Mission Impossible Fallout 2018 IMAX 1080p Bluray X264 LLG Download

Download Free Mission Impossible Fallout 2018 IMAX 1080p Bluray X264 LLG Torrent

Download Mission Impossible Fallout 2018 IMAX 1080p Bluray X264 LLG Torrent - Kickass Torrents

Mission Impossible Fallout 2018 IMAX 1080p Bluray X264 LLG Download Torrent - Extratorrent

Mission Impossible Fallout 2018 IMAX 1080p Bluray X264 LLG Downlaod - torrentz2.eu

Download Mission Impossible Fallout 2018 IMAX 1080p Bluray X264 LLG Torrent - Limetorrent.info

Torrent Mission Impossible Fallout 2018 IMAX 1080p Bluray X264 LLG Download - eztv.ag

Mission Impossible Fallout 2018 IMAX 1080p Bluray X264 LLG HD Full Download Free 2018 - 123movies




Tagged with:

Related Movies Torrents