Home / Mile 22 (2018) 720p BRRip x264 AAC by Full4movies - Full Movie Online

Mile 22 (2018) 720p BRRip x264 AAC by Full4movies - Download Full Movie

date added 3 weeks ago   
post views 5 views   
torrent id ID: 546193

Torrent Description: Recently Released New Movie On TorrentForest Mile 22 (2018) 720p BRRip x264 AAC by Full4movies Full Movie Torrent in HD. Mile 22 (2018) 720p BRRip x264 AAC by Full4movies DVD Print Free. 1080p Movie Download Mile 22 (2018) 720p BRRip x264 AAC by Full4movies 720p and Bluray Movie Torrent. Scroll Down to Get Download Link.

  • Category : Movies
  • Type : HD
  • Language : English
  • Total size : 859.9 MB
  • Uploaded By : shmasti-shmasti



General
Complete name : Mile 22 (2018) 720p BRRip x264 AAC by Full4movies.mkv
Format : Matroska
Format version : Version 4 / Version 2
File size : 860 MiB
Duration : 1 h 34 min
Overall bit rate : 1 270 kb/s
Movie name : www.Full4movies.co
Encoded date : UTC 2018-11-14 16:38:39
Writing application : mkvmerge v8.1.0 ('Psychedelic Postcard') 32bit
Writing library : libebml v1.3.1 + libmatroska v1.4.2

Video
ID : 1
Format : AVC
Format/Info : Advanced Video Codec
Format profile : [email protected]
Format settings, CABAC : Yes
Format settings, RefFrames : 5 frames
Codec ID : V_MPEG4/ISO/AVC
Duration : 1 h 34 min
Bit rate : 1 152 kb/s
Width : 1 280 pixels
Height : 536 pixels
Display aspect ratio : 2.40:1
Frame rate mode : Constant
Frame rate : 23.976 (24000/1001) FPS
Color space : YUV
Chroma subsampling : 4:2:0
Bit depth : 8 bits
Scan type : Progressive
Bits/(Pixel*Frame) : 0.070
Stream size : 770 MiB (90%)
Writing library : x264 core 148 r2795 aaa9aa8
Default : Yes
Forced : No

Audio
ID : 2
Format : AAC
Format/Info : Advanced Audio Codec
Format profile : LC
Codec ID : A_AAC
Duration : 1 h 34 min
Bit rate : 132 kb/s
Channel(s) : 2 channels
Channel positions : Front: L R
Sampling rate : 48.0 kHz
Frame rate : 46.875 FPS (1024 SPF)
Compression mode : Lossy
Delay relative to video : 9 ms
Stream size : 88.1 MiB (10%)
Language : English
Default : Yes
Forced : No

Screen Shoots

DOWNLOAD LINK

Mile 22 (2018) 720p BRRip x264 AAC by Full4movies Mile 22 (2018) 720p BRRip x264 AAC by Full4movies

Latest Top Searches of peoples:

Download Mile 22 (2018) 720p BRRip x264 AAC by Full4movies Full Movie Torrent HD Quality.

Torrent Mile 22 (2018) 720p BRRip x264 AAC by Full4movies Download

Download Free Mile 22 (2018) 720p BRRip x264 AAC by Full4movies Torrent

Download Mile 22 (2018) 720p BRRip x264 AAC by Full4movies Torrent - Kickass Torrents

Mile 22 (2018) 720p BRRip x264 AAC by Full4movies Download Torrent - Extratorrent

Mile 22 (2018) 720p BRRip x264 AAC by Full4movies Downlaod - torrentz2.eu

Download Mile 22 (2018) 720p BRRip x264 AAC by Full4movies Torrent - Limetorrent.info

Torrent Mile 22 (2018) 720p BRRip x264 AAC by Full4movies Download - eztv.ag

Mile 22 (2018) 720p BRRip x264 AAC by Full4movies HD Full Download Free 2018 - 123movies




Tagged with:

Related Movies Torrents