Home / Megan Leavey - Sergente Rex (2017) 720p H264 italian english Ac3- - Full Movie Online

Megan Leavey - Sergente Rex (2017) 720p H264 italian english Ac3- - Download Full Movie

date added 1 month ago   
post views 10 views   
torrent id ID: 541480

Torrent Description: Recently Released New Movie On TorrentForest Megan Leavey - Sergente Rex (2017) 720p H264 italian english Ac3- Full Movie Torrent in HD. Megan Leavey - Sergente Rex (2017) 720p H264 italian english Ac3- DVD Print Free. 1080p Movie Download Megan Leavey - Sergente Rex (2017) 720p H264 italian english Ac3- 720p and Bluray Movie Torrent. Scroll Down to Get Download Link.

  • Category : Movies
  • Type : HD
  • Language : English
  • Total size : 2.2 GB
  • Uploaded By : robbyrs-robbyrs

Sergente Rex - Megan Leavey (2017).720p.H264.italian.english.Ac3-5.1.sub.ita-MIRCrew


NO FOUND ONLY ORIGINAL RELEASE



My release is always in double track audio italian and Original audio
for select it use VLC or dvd player home
not use wmp

Sergente Rex - Megan Leavey (2017)

Quality MIRCrew on HD 720p da 2,2 gb







Regia di Gabriela Cowperthwaite.
Titolo originale: Megan Leavey.
Genere Biografico
USA, 2017,



Kate Mara, Tom Felton, Edie Falco, Will Patton, Ramon Rodriguez, Sam Keeley. Cast completo



Il film racconta la storia di Megan Leavey, una marine appartenente all'unità artificieri K9, partita per l'Iraq insieme al suo cane Rex. Sono stati in servizio per due turni di sei mesi e hanno affrontato più di 100 missioni prima di...............



Based on the true life story of a young Marine corporal whose unique discipline and bond with her military combat dog saved many lives during their deployment in Iraq.








General
Unique ID : 197837801787076975761845676650497540123 (0x94D62CB6799ACE57B473EDD39B63801B)
Complete name : Sergente Rex - Megan Leavey (2017).720p.ita.eng.sub.ita-MIRCrew\Sergente Rex - Megan Leavey (2017).720p.ita.eng.sub.ita-MIRCrew.mkv
Format : Matroska
Format version : Version 2
File size : 2.24 GiB
Duration : 1h 55mn
Overall bit rate : 2 764 Kbps
Movie name : MIRCrew
Encoded date : UTC 2018-11-01 09:24:18
Writing application : mkvmerge v5.4.0 ('Piper') built on Mar 10 2012 13:34:39
Writing library : Lavf54.63.100

Video
ID : 1
Format : AVC
Format/Info : Advanced Video Codec
Format profile : [email protected]
Format settings, CABAC : Yes
Format settings, ReFrames : 2 frames
Codec ID : V_MPEG4/ISO/AVC
Duration : 1h 55mn
Bit rate : 1 900 Kbps
Width : 1 280 pixels
Height : 544 pixels
Display aspect ratio : 2.35:1
Original display aspect ratio : 2.35:1
Frame rate mode : Variable
Frame rate : 24.000 fps
Color space : YUV
Chroma subsampling : 4:2:0
Bit depth : 8 bits
Scan type : Progressive
Bits/(Pixel*Frame) : 0.114
Stream size : 1.47 GiB (66%)
Title : MIRCrew
Writing library : x264 core 130 r2273
Encoding settings : cabac=1 / ref=2 / deblock=1:0:0 / analyse=0x1:0x131 / me=hex / subme=7 / psy=1 / psy_rd=1.00:0.00 / mixed_ref=0 / me_range=16 / chroma_me=1 / trellis=1 / 8x8dct=0 / cqm=0 / deadzone=21,11 / fast_pskip=1 / chroma_qp_offset=-2 / threads=3 / lookahead_threads=1 / sliced_threads=0 / nr=0 / decimate=1 / interlaced=0 / bluray_compat=0 / constrained_intra=0 / bframes=3 / b_pyramid=0 / b_adapt=1 / b_bias=0 / direct=3 / weightb=1 / open_gop=0 / weightp=2 / keyint=240 / keyint_min=24 / scenecut=40 / intra_refresh=0 / rc_lookahead=40 / rc=abr / mbtree=1 / bitrate=1900 / ratetol=1.0 / qcomp=0.60 / qpmin=10 / qpmax=69 / qpstep=4 / vbv_maxrate=24000 / vbv_bufsize=24000 / nal_hrd=none / ip_ratio=1.40 / aq=1:1.00
Language : Italian
Default : Yes
Forced : No
DURATION : 01:55:56.417000000
NUMBER_OF_FRAMES : 166954
NUMBER_OF_BYTES : 5119778074
_STATISTICS_WRITING_APP : mkvmerge v26.0.0 ('In The Game') 64-bit
_STATISTICS_WRITING_DATE_UTC : 2018-08-29 12:07:40
_STATISTICS_TAGS : BPS DURATION NUMBER_OF_FRAMES NUMBER_OF_BYTES

Audio #1
ID : 2
Format : AC-3
Format/Info : Audio Coding 3
Mode extension : CM (complete main)
Codec ID : A_AC3
Duration : 1h 55mn
Bit rate mode : Constant
Bit rate : 448 Kbps
Channel(s) : 6 channels
Channel positions : Front: L C R, Side: L R, LFE
Sampling rate : 48.0 KHz
Bit depth : 16 bits
Compression mode : Lossy
Delay relative to video : -5ms
Stream size : 372 MiB (16%)
Title : Ita Ac3 5.1
Language : Italian
Default : Yes
Forced : No
DURATION : 01:55:55.446000000
NUMBER_OF_FRAMES : 652073
NUMBER_OF_BYTES : 1311970876
_STATISTICS_WRITING_APP : mkvmerge v26.0.0 ('In The Game') 64-bit
_STATISTICS_WRITING_DATE_UTC : 2018-08-29 12:07:40
_STATISTICS_TAGS : BPS DURATION NUMBER_OF_FRAMES NUMBER_OF_BYTES

Audio #2
ID : 3
Format : AC-3
Format/Info : Audio Coding 3
Mode extension : CM (complete main)
Codec ID : A_AC3
Duration : 1h 55mn
Bit rate mode : Constant
Bit rate : 448 Kbps
Channel(s) : 6 channels
Channel positions : Front: L C R, Side: L R, LFE
Sampling rate : 48.0 KHz
Bit depth : 16 bits
Compression mode : Lossy
Delay relative to video : -5ms
Stream size : 372 MiB (16%)
Title : Eng Ac3 5.1
Language : English
Default : No
Forced : No
DURATION : 01:55:55.456000000
NUMBER_OF_FRAMES : 217358
NUMBER_OF_BYTES : 556436480
_STATISTICS_WRITING_APP : mkvmerge v26.0.0 ('In The Game') 64-bit
_STATISTICS_WRITING_DATE_UTC : 2018-08-29 12:07:40
_STATISTICS_TAGS : BPS DURATION NUMBER_OF_FRAMES NUMBER_OF_BYTES

Menu
00:00:00.000 : :00:00:00.000
00:09:41.875 : :00:09:41.875
00:21:53.667 : :00:21:53.667
00:28:59.000 : :00:28:59.000
00:39:58.833 : :00:39:58.833
00:51:31.042 : :00:51:31.042
00:59:59.500 : :00:59:59.500
01:09:07.750 : :01:09:07.750
01:19:37.625 : :01:19:37.625
01:29:41.125 : :01:29:41.125
01:40:29.250 : :01:40:29.250
01:47:19.042 : :01:47:19.042

DOWNLOAD LINK

Megan Leavey - Sergente Rex (2017) 720p H264 italian english Ac3- Megan Leavey - Sergente Rex (2017) 720p H264 italian english Ac3-

Latest Top Searches of peoples:

Download Megan Leavey - Sergente Rex (2017) 720p H264 italian english Ac3- Full Movie Torrent HD Quality.

Torrent Megan Leavey - Sergente Rex (2017) 720p H264 italian english Ac3- Download

Download Free Megan Leavey - Sergente Rex (2017) 720p H264 italian english Ac3- Torrent

Download Megan Leavey - Sergente Rex (2017) 720p H264 italian english Ac3- Torrent - Kickass Torrents

Megan Leavey - Sergente Rex (2017) 720p H264 italian english Ac3- Download Torrent - Extratorrent

Megan Leavey - Sergente Rex (2017) 720p H264 italian english Ac3- Downlaod - torrentz2.eu

Download Megan Leavey - Sergente Rex (2017) 720p H264 italian english Ac3- Torrent - Limetorrent.info

Torrent Megan Leavey - Sergente Rex (2017) 720p H264 italian english Ac3- Download - eztv.ag

Megan Leavey - Sergente Rex (2017) 720p H264 italian english Ac3- HD Full Download Free 2018 - 123movies




Tagged with:

Related Movies Torrents