Home / Invoking 5 (2018) 720p HDRip x264 AAC by Full4movies - Full Movie Online

Invoking 5 (2018) 720p HDRip x264 AAC by Full4movies - Download Full Movie

date added 3 weeks ago   
post views 6 views   
torrent id ID: 546190

Torrent Description: Recently Released New Movie On TorrentForest Invoking 5 (2018) 720p HDRip x264 AAC by Full4movies Full Movie Torrent in HD. Invoking 5 (2018) 720p HDRip x264 AAC by Full4movies DVD Print Free. 1080p Movie Download Invoking 5 (2018) 720p HDRip x264 AAC by Full4movies 720p and Bluray Movie Torrent. Scroll Down to Get Download Link.

  • Category : Movies
  • Type : h.264/x264
  • Language : English
  • Total size : 676.7 MB
  • Uploaded By : shmasti-shmasti



General
Complete name : Invoking 5 (2018) 720p HDRip x264 AAC by Full4movies.mkv
Format : Matroska
Format version : Version 4 / Version 2
File size : 677 MiB
Duration : 1 h 19 min
Overall bit rate : 1 190 kb/s
Movie name : www.Full4movies.co
Encoded date : UTC 2018-11-14 16:38:15
Writing application : mkvmerge v8.1.0 ('Psychedelic Postcard') 32bit
Writing library : libebml v1.3.1 + libmatroska v1.4.2

Video
ID : 1
Format : AVC
Format/Info : Advanced Video Codec
Format profile : [email protected]
Format settings, CABAC : Yes
Format settings, RefFrames : 4 frames
Codec ID : V_MPEG4/ISO/AVC
Duration : 1 h 19 min
Bit rate : 1 088 kb/s
Width : 1 280 pixels
Height : 536 pixels
Display aspect ratio : 2.40:1
Frame rate mode : Constant
Frame rate : 23.976 FPS
Color space : YUV
Chroma subsampling : 4:2:0
Bit depth : 8 bits
Scan type : Progressive
Bits/(Pixel*Frame) : 0.066
Stream size : 630 MiB (93%)
Writing library : x264 core 155 r2901 7d0ff22
Default : Yes
Forced : No
Color range : Limited
Color primaries : BT.709
Transfer characteristics : BT.709
Matrix coefficients : BT.709

Audio
ID : 2
Format : AAC
Format/Info : Advanced Audio Codec
Format profile : LC
Codec ID : A_AAC
Duration : 1 h 19 min
Bit rate : 80.0 kb/s
Channel(s) : 2 channels
Channel positions : Front: L R
Sampling rate : 48.0 kHz
Frame rate : 46.875 FPS (1024 SPF)
Compression mode : Lossy
Delay relative to video : -63 ms
Stream size : 45.5 MiB (7%)
Language : English
Default : Yes
Forced : No

Screen Shoots

DOWNLOAD LINK

Invoking 5 (2018) 720p HDRip x264 AAC by Full4movies Invoking 5 (2018) 720p HDRip x264 AAC by Full4movies

Latest Top Searches of peoples:

Download Invoking 5 (2018) 720p HDRip x264 AAC by Full4movies Full Movie Torrent HD Quality.

Torrent Invoking 5 (2018) 720p HDRip x264 AAC by Full4movies Download

Download Free Invoking 5 (2018) 720p HDRip x264 AAC by Full4movies Torrent

Download Invoking 5 (2018) 720p HDRip x264 AAC by Full4movies Torrent - Kickass Torrents

Invoking 5 (2018) 720p HDRip x264 AAC by Full4movies Download Torrent - Extratorrent

Invoking 5 (2018) 720p HDRip x264 AAC by Full4movies Downlaod - torrentz2.eu

Download Invoking 5 (2018) 720p HDRip x264 AAC by Full4movies Torrent - Limetorrent.info

Torrent Invoking 5 (2018) 720p HDRip x264 AAC by Full4movies Download - eztv.ag

Invoking 5 (2018) 720p HDRip x264 AAC by Full4movies HD Full Download Free 2018 - 123movies




Tagged with:

Related Movies Torrents