Home / Exorcism - Le viziose - L'éventreur de Notre-Dame (1975) BRri - Full Movie Online

Exorcism - Le viziose - L'éventreur de Notre-Dame (1975) BRri - Download Full Movie

date added 2 years ago   
post views 751 views   
torrent id ID: 1128

Torrent Description: Recently Released New Movie On TorrentForest Exorcism - Le viziose - L'éventreur de Notre-Dame (1975) BRri Full Movie Torrent in HD. Exorcism - Le viziose - L'éventreur de Notre-Dame (1975) BRri DVD Print Free. 1080p Movie Download Exorcism - Le viziose - L'éventreur de Notre-Dame (1975) BRri 720p and Bluray Movie Torrent. Scroll Down to Get Download Link.

  • Category » Movies
  • Type » Divx/Xvid
  • Language » English
  • Total size » 1.26 GB
  • Uploaded By » robbyrs-robbyrs
Exorcism - Le viziose - L'éventreur de Notre-Dame (1975).BRrip.XviD - Italian.English.Ac3.Sub.eng.iCV-MIRCrew




NO FOUND ONLY ORIGINAL RELEASE

My release is always in double track audio italian and Original audio
for select it use VLC or dvd player home
not use wmp

Exorcism Le viziose - L'éventreur de Notre-Dame (1975)










Titolo Originale: L'éventreur de Notre-Dame
Nazionalità: Belgio, Francia, Spagna
Anno: 1975
Genere: Horror
Regia: Jesús Franco
Durata: 95 min.





Lina Romay
Catherine Lafferière
Jesús Franco
Lynn Monteil
Pierre Taylou
Roger Germanes
Monica Swinn
France Nicolas
Sam Marée
François Guillaume
Caroline Rivière
Olivier Mathot




Un sacerdote dalla psiche disturbata (interpretato dallo stesso Jesus Franco), che scrive racconti erotici per una rivista, assiste casualmente ad uno spettacolo rappresentante una messa nera e si convince che i partecipanti siano realmente posseduti dal demonio e, con l’intento di esorcizzarli, pone in essere una serie di atti che lo faranno diventare un assassino.........



The story in this horror movie involves a young woman's unknowing participation in a satanic ceremony which causes her to be possessed by the spirit of her dead father. She promptly begins exhibiting the standard symptoms - curses, vomiting, and even twisting the heads of a few people 180 degrees. Naschy plays the village priest summoned to perform the rites of exorcism, and must fend off the possessed's lewd advances before casting the evil spirit out of her body............











[spoiler]
General
Complete name : Exorcism (1975).ita.eng.sub.eng-iCV-MIRCrew\Exorcism (1975).ita.eng.sub.eng-MIRCrew-ICV.avi
Format : AVI
Format/Info : Audio Video Interleave
File size : 1.26 GiB
Duration : 1h 37mn
Overall bit rate : 1 847 Kbps
Movie name : www.icv-crew.org
Writing application : VirtualDubMod 1.5.10.2 (build 2540/release)
Writing library : VirtualDubMod build 2540/release

Video
ID : 0
Format : MPEG-4 Visual
Format profile : [email protected]
Format settings, BVOP : No
Format settings, QPel : No
Format settings, GMC : No warppoints
Format settings, Matrix : Default (H.263)
Codec ID : XVID
Codec ID/Hint : XviD
Duration : 1h 37mn
Bit rate : 1 448 Kbps
Width : 686 pixels
Height : 412 pixels
Display aspect ratio : 1.665
Frame rate : 23.976 fps
Color space : YUV
Chroma subsampling : 4:2:0
Bit depth : 8 bits
Scan type : Progressive
Compression mode : Lossy
Bits/(Pixel*Frame) : 0.214
Stream size : 1 013 MiB (78%)
Writing library : XviD 64

Audio #1
ID : 1
Format : AC-3
Format/Info : Audio Coding 3
Mode extension : CM (complete main)
Codec ID : 2000
Duration : 1h 37mn
Bit rate mode : Constant
Bit rate : 192 Kbps
Channel(s) : 2 channels
Channel positions : Front: L R
Sampling rate : 48.0 KHz
Bit depth : 16 bits
Compression mode : Lossy
Stream size : 134 MiB (10%)
Alignment : Split accross interleaves
Interleave, duration : 42 ms (1.00 video frame)
Interleave, preload duration : 500 ms

Audio #2
ID : 2
Format : AC-3
Format/Info : Audio Coding 3
Mode extension : CM (complete main)
Codec ID : 2000
Duration : 1h 37mn
Bit rate mode : Constant
Bit rate : 192 Kbps
Channel(s) : 2 channels
Channel positions : Front: L R
Sampling rate : 48.0 KHz
Bit depth : 16 bits
Compression mode : Lossy
Stream size : 134 MiB (10%)
Alignment : Split accross interleaves
Interleave, duration : 42 ms (1.00 video frame)
Interleave, preload duration : 500 ms


[/spoiler]



DOWNLOAD LINK

Exorcism - Le viziose - L'éventreur de Notre-Dame (1975) BRri Exorcism - Le viziose - L'éventreur de Notre-Dame (1975) BRri

Latest Top Searches of peoples:

Download Exorcism - Le viziose - L'éventreur de Notre-Dame (1975) BRri Full Movie Torrent HD Quality.

Torrent Exorcism - Le viziose - L'éventreur de Notre-Dame (1975) BRri Download

Download Free Exorcism - Le viziose - L'éventreur de Notre-Dame (1975) BRri Torrent

Download Exorcism - Le viziose - L'éventreur de Notre-Dame (1975) BRri Torrent - Kickass Torrents

Exorcism - Le viziose - L'éventreur de Notre-Dame (1975) BRri Download Torrent - Extratorrent

Exorcism - Le viziose - L'éventreur de Notre-Dame (1975) BRri Downlaod - torrentz2.eu

Download Exorcism - Le viziose - L'éventreur de Notre-Dame (1975) BRri Torrent - Limetorrent.info

Torrent Exorcism - Le viziose - L'éventreur de Notre-Dame (1975) BRri Download - eztv.ag

Exorcism - Le viziose - L'éventreur de Notre-Dame (1975) BRri HD Full Download Free 2018 - 123movies




Tagged with:

Related Movies Torrents