Home / Evil Clutch - Il bosco (1988) 720p H264 italian english Ac3-5 1-M - Full Movie Online

Evil Clutch - Il bosco (1988) 720p H264 italian english Ac3-5 1-M - Download Full Movie

date added 6 days ago   
post views 3 views   
torrent id ID: 543526

Torrent Description: Recently Released New Movie On TorrentForest Evil Clutch - Il bosco (1988) 720p H264 italian english Ac3-5 1-M Full Movie Torrent in HD. Evil Clutch - Il bosco (1988) 720p H264 italian english Ac3-5 1-M DVD Print Free. 1080p Movie Download Evil Clutch - Il bosco (1988) 720p H264 italian english Ac3-5 1-M 720p and Bluray Movie Torrent. Scroll Down to Get Download Link.

  • Category : Movies
  • Type : h.264/x264
  • Language : English
  • Total size : 1.2 GB
  • Uploaded By : robbyrs-robbyrs

Il bosco - Evil Clutch (1988).720p.H264.italian.english.Ac3-5.1-MIRCrew


NO FOUND ONLY ORIGINAL RELEASE



My release is always in double track audio italian and Original audio
for select it use VLC or dvd player home
not use wmp

Il bosco - Evil Clutch (1988)







Titolo originale Evil Clutch
Lingua originale italiano
Paese di produzione Italia
Anno 1988
Durata 85 min
Genere orrore
Regia Andrea Marfori
Soggetto Andrea Marfori



Coralina Cataldi Tassoni: Cindy
Diego Ribon: Tony
Luciano Crovato: Algernoon
Elena Cantarone: Arva
Stefano Molinari: Fango



Due fidanzati, Cindy e Tony hanno in mente di fare una gita sulle Alpi. Per strada soccorrono Arva, una ragazza che dice di essere stata aggredita da qualcosa di orrendo al cimitero.



The story of a hideous monster who takes the form of a beautiful, seductive woman who in a torrent of special effects, beauty and monster transform into a climax of pure evil. For years ...









General
Unique ID : 43087639597986935919816611601879023797 (0x206A60A6089EECBD61A2999DC5D240B5)
Complete name : Il bosco - Evil Clutch (1988).H264.ita.eng-MIRCrew.mkv
Format : Matroska
Format version : Version 2
File size : 1.23 GiB
Duration : 1h 25mn
Overall bit rate : 2 068 Kbps
Movie name : MIRCrew
Encoded date : UTC 2018-08-04 13:01:46
Writing application : Lavf54.63.100
Writing library : Lavf54.63.100
COPYRIGHT : robbyrs

Video
ID : 1
Format : AVC
Format/Info : Advanced Video Codec
Format profile : [email protected]
Format settings, CABAC : Yes
Format settings, ReFrames : 2 frames
Codec ID : V_MPEG4/ISO/AVC
Duration : 1h 25mn
Bit rate : 1 300 Kbps
Width : 720 pixels
Height : 544 pixels
Display aspect ratio : 4:3
Frame rate mode : Variable
Frame rate : 25.000 fps
Color space : YUV
Chroma subsampling : 4:2:0
Bit depth : 8 bits
Scan type : Progressive
Bits/(Pixel*Frame) : 0.055
Stream size : 766 MiB (61%)
Writing library : x264 core 130 r2273
Encoding settings : cabac=1 / ref=2 / deblock=1:0:0 / analyse=0x1:0x131 / me=hex / subme=7 / psy=1 / psy_rd=1.00:0.00 / mixed_ref=0 / me_range=16 / chroma_me=1 / trellis=1 / 8x8dct=0 / cqm=0 / deadzone=21,11 / fast_pskip=1 / chroma_qp_offset=-2 / threads=3 / lookahead_threads=1 / sliced_threads=0 / nr=0 / decimate=1 / interlaced=0 / bluray_compat=0 / constrained_intra=0 / bframes=3 / b_pyramid=0 / b_adapt=1 / b_bias=0 / direct=3 / weightb=1 / open_gop=0 / weightp=2 / keyint=590 / keyint_min=59 / scenecut=40 / intra_refresh=0 / rc_lookahead=40 / rc=abr / mbtree=1 / bitrate=1300 / ratetol=1.0 / qcomp=0.60 / qpmin=10 / qpmax=69 / qpstep=4 / vbv_maxrate=24000 / vbv_bufsize=24000 / nal_hrd=none / ip_ratio=1.40 / aq=1:1.00
Language : Italian
Default : Yes
Forced : No
DURATION : 01:25:06.568000000
NUMBER_OF_FRAMES : 153044
NUMBER_OF_BYTES : 3829915422
_STATISTICS_WRITING_APP : mkvmerge v24.0.0 ('Beyond The Pale') 64-bit
_STATISTICS_WRITING_DATE_UTC : 2018-06-28 08:29:00
_STATISTICS_TAGS : BPS DURATION NUMBER_OF_FRAMES NUMBER_OF_BYTES

Audio #1
ID : 2
Format : AC-3
Format/Info : Audio Coding 3
Mode extension : CM (complete main)
Codec ID : A_AC3
Duration : 1h 25mn
Bit rate mode : Constant
Bit rate : 384 Kbps
Channel(s) : 6 channels
Channel positions : Front: L C R, Side: L R, LFE
Sampling rate : 48.0 KHz
Bit depth : 16 bits
Compression mode : Lossy
Delay relative to video : 1mn 5s
Stream size : 234 MiB (19%)
Title : AC3 384 5.1
Language : Italian
Default : Yes
Forced : No
DURATION : 01:24:56.256000000
NUMBER_OF_FRAMES : 159258
NUMBER_OF_BYTES : 244620288
_STATISTICS_WRITING_APP : mkvmerge v24.0.0 ('Beyond The Pale') 64-bit
_STATISTICS_WRITING_DATE_UTC : 2018-06-28 08:29:00
_STATISTICS_TAGS : BPS DURATION NUMBER_OF_FRAMES NUMBER_OF_BYTES

Audio #2
ID : 3
Format : AC-3
Format/Info : Audio Coding 3
Mode extension : CM (complete main)
Codec ID : A_AC3
Duration : 1h 25mn
Bit rate mode : Constant
Bit rate : 384 Kbps
Channel(s) : 6 channels
Channel positions : Front: L C R, Side: L R, LFE
Sampling rate : 48.0 KHz
Bit depth : 16 bits
Compression mode : Lossy
Delay relative to video : 1mn 5s
Stream size : 234 MiB (19%)
Title : AC3 448 5.1
Language : English
Default : No
Forced : No
DURATION : 01:25:06.560000000
NUMBER_OF_FRAMES : 159580
NUMBER_OF_BYTES : 285967360
_STATISTICS_WRITING_APP : mkvmerge v24.0.0 ('Beyond The Pale') 64-bit
_STATISTICS_WRITING_DATE_UTC : 2018-06-28 08:29:00
_STATISTICS_TAGS : BPS DURATION NUMBER_OF_FRAMES NUMBER_OF_BYTES


DOWNLOAD LINK

Evil Clutch - Il bosco (1988) 720p H264 italian english Ac3-5 1-M Evil Clutch - Il bosco (1988) 720p H264 italian english Ac3-5 1-M

Latest Top Searches of peoples:

Download Evil Clutch - Il bosco (1988) 720p H264 italian english Ac3-5 1-M Full Movie Torrent HD Quality.

Torrent Evil Clutch - Il bosco (1988) 720p H264 italian english Ac3-5 1-M Download

Download Free Evil Clutch - Il bosco (1988) 720p H264 italian english Ac3-5 1-M Torrent

Download Evil Clutch - Il bosco (1988) 720p H264 italian english Ac3-5 1-M Torrent - Kickass Torrents

Evil Clutch - Il bosco (1988) 720p H264 italian english Ac3-5 1-M Download Torrent - Extratorrent

Evil Clutch - Il bosco (1988) 720p H264 italian english Ac3-5 1-M Downlaod - torrentz2.eu

Download Evil Clutch - Il bosco (1988) 720p H264 italian english Ac3-5 1-M Torrent - Limetorrent.info

Torrent Evil Clutch - Il bosco (1988) 720p H264 italian english Ac3-5 1-M Download - eztv.ag

Evil Clutch - Il bosco (1988) 720p H264 italian english Ac3-5 1-M HD Full Download Free 2018 - 123movies




Tagged with:

Related Movies Torrents