Home / Dark Signal 2016 English Movies HDRip XviD AAC New Source with - Full Movie Online

Dark Signal 2016 English Movies HDRip XviD AAC New Source with - Download Full Movie

date added 2 years ago   
post views 253 views   
torrent id ID: 100895

Torrent Description: Recently Released New Movie On TorrentForest Dark Signal 2016 English Movies HDRip XviD AAC New Source with Full Movie Torrent in HD. Dark Signal 2016 English Movies HDRip XviD AAC New Source with DVD Print Free. 1080p Movie Download Dark Signal 2016 English Movies HDRip XviD AAC New Source with 720p and Bluray Movie Torrent. Scroll Down to Get Download Link.

  • Category » Movies
  • Type » Divx/Xvid
  • Language » English
  • Total size » 704.59 MB
  • Uploaded By » nehalpuja-nehalpuja


Dark Signal 2016 English Movies HDRip XviD AAC New Source with Sample ☻rDX☻

SCREEN SHOTS :



or

http://mobileshosting.com/2016/6/bank/1.html

Format : Matroska
Format version : Version 4 / Version 2
File size : 693 MiB
Duration : 1h 38mn
Overall bit rate : 981 Kbps
Movie name : Dark Signal 2016 English Movies HDRip XviD AAC New Source ☻rDX☻

Video
ID : 1
Format : MPEG-4 Visual
Format profile : Advanced [email protected]
Format settings, BVOP : Yes
Format settings, QPel : No
Format settings, GMC : No warppoints
Format settings, Matrix : Default (H.263)
Codec ID : V_MS/VFW/FOURCC / XVID
Codec ID/Hint : XviD
Duration : 1h 38mn
Bit rate : 833 Kbps
Width : 640 pixels
Height : 272 pixels
Display aspect ratio : 2.35:1
Frame rate mode : Constant
Frame rate : 24.000 fps
Color space : YUV
Chroma subsampling : 4:2:0
Bit depth : 8 bits
Scan type : Progressive
Compression mode : Lossy
Bits/(Pixel*Frame) : 0.199
Stream size : 589 MiB (85%)
Title : ☻rDX☻
Writing library : XviD 65
Default : Yes
Forced : No

Audio
ID : 2
Format : MPEG Audio
Format version : Version 1
Format profile : Layer 3
Mode : Joint stereo
Mode extension : MS Stereo
Codec ID : A_MPEG/L3
Codec ID/Hint : MP3
Duration : 1h 38mn
Bit rate mode : Constant
Bit rate : 128 Kbps
Channel(s) : 2 channels
Sampling rate : 48.0 KHz
Compression mode : Lossy
Stream size : 90.5 MiB (13%)
Title : ☻rDX☻
Writing library : LAME3.99r
Encoding settings : -m j -V 4 -q 3 -lowpass 17 -b 128
Default : Yes
Forced : No



IMDB : http://www.imdb.com/title/tt3780208/

DOWNLOAD LINK

Dark Signal 2016 English Movies HDRip XviD AAC New Source with Dark Signal 2016 English Movies HDRip XviD AAC New Source with

Latest Top Searches of peoples:

Download Dark Signal 2016 English Movies HDRip XviD AAC New Source with Full Movie Torrent HD Quality.

Torrent Dark Signal 2016 English Movies HDRip XviD AAC New Source with Download

Download Free Dark Signal 2016 English Movies HDRip XviD AAC New Source with Torrent

Download Dark Signal 2016 English Movies HDRip XviD AAC New Source with Torrent - Kickass Torrents

Dark Signal 2016 English Movies HDRip XviD AAC New Source with Download Torrent - Extratorrent

Dark Signal 2016 English Movies HDRip XviD AAC New Source with Downlaod - torrentz2.eu

Download Dark Signal 2016 English Movies HDRip XviD AAC New Source with Torrent - Limetorrent.info

Torrent Dark Signal 2016 English Movies HDRip XviD AAC New Source with Download - eztv.ag

Dark Signal 2016 English Movies HDRip XviD AAC New Source with HD Full Download Free 2018 - 123movies




Tagged with:

Related Movies Torrents